Posted : 9 Months ago

  1. Format                                   : AVI
  2. Format/Info                              : Audio Video Interleave
  3. File size                                : 947 MiB
  4. Duration                                 : 1h 28mn
  5. Overall bit rate                         : 1 495 Kbps
  6. Writing library                          : VirtualDub build 32842/release
  7.  
  8. Video
  9. ID                                       : 0
  10. Format                                   : MPEG-4 Visual
  11. Format profile                           : Advanced Simple@L5
  12. Format settings, BVOP                    : 2
  13. Format settings, QPel                    : No
  14. Format settings, GMC                     : No warppoints
  15. Format settings, Matrix                  : Default (H.263)
  16. Muxing mode                              : Packed bitstream
  17. Codec ID                                 : XVID
  18. Codec ID/Hint                            : XviD
  19. Duration                                 : 1h 28mn
  20. Bit rate                                 : 1 294 Kbps
  21. Width                                    : 640 pixels
  22. Height                                   : 360 pixels
  23. Display aspect ratio                     : 16:9
  24. Frame rate                               : 25.000 fps
  25. Color space                              : YUV
  26. Chroma subsampling                       : 4:2:0
  27. Bit depth                                : 8 bits
  28. Scan type                                : Progressive
  29. Compression mode                         : Lossy
  30. Bits/(Pixel*Frame)                       : 0.225
  31. Stream size                              : 819 MiB (87%)
  32. Writing library                          : XviD 64
  33.  
  34. Audio
  35. ID                                       : 1
  36. Format                                   : MPEG Audio
  37. Format version                           : Version 1
  38. Format profile                           : Layer 3
  39. Mode                                     : Joint stereo
  40. Mode extension                           : MS Stereo
  41. Codec ID                                 : 55
  42. Codec ID/Hint                            : MP3
  43. Duration                                 : 1h 28mn
  44. Bit rate mode                            : Constant
  45. Bit rate                                 : 192 Kbps
  46. Channel(s)                               : 2 channels
  47. Sampling rate                            : 48.0 KHz
  48. Compression mode                         : Lossy
  49. Stream size                              : 122 MiB (13%)
  50. Alignment                                : Split accross interleaves
  51. Interleave, duration                     : 40 ms (1.00 video frame)
  52. Interleave, preload duration             : 500 ms
  53. Writing library                          : LAME3.99.5