Posted : 10 Months ago

  1. (  ___  )|\     /|(  ____ \(  __  \
  2. | (   ) |( \   / )| (    \/| (  \  )
  3. | (___) | \ (_) / | (__    | |   ) |
  4. |  ___  |  ) _ (  |  __)   | |   | |
  5. | (   ) | / ( ) \ | (      | |   ) |
  6. | )   ( |( /   \ )| (____/\| (__/  )
  7. |/     \||/     \|(_______/(______/
  8.   _    _    _    _    _    _    _    _
  9.  / \  / \  / \  / \  / \  / \  / \  / \
  10. ( p )( r )( e )( s )( e )( n )( t )( s )
  11.  \_/  \_/  \_/  \_/  \_/  \_/  \_/  \_/
  12.  
  13. The.Rambler.2013.720p.BluRay.AC3-5.1.x264-AXED
  14.  
  15. POSTER:
  16. http://img855.imageshack.us/img855/6042/therambler.jpg
  17.  
  18. IMDB:
  19. http://www.imdb.com/title/tt2381355
  20.  
  21. PLOT INFO:
  22. Dermot Mulroney is The Rambler.
  23.  
  24. Media Info:
  25. General
  26. Unique ID                                : 210249373954313444680195513103753263757 (0x9E2C8E775B2393 >>
  27. FA8B46A303245BA8D)
  28. Complete name                            : The.Rambler.2013.720p.BluRay.AC3-5.1.x264-AXED.mkv
  29. Format                                   : Matroska
  30. Format version                           : Version 2
  31. File size                                : 4.49 GiB
  32. Duration                                 : 1h 38mn
  33. Overall bit rate                         : 6 508 Kbps
  34. Encoded date                             : UTC 2013-06-02 01:07:33
  35. Writing application                      : mkvmerge v4.0.0 ('The Stars were mine') built on Jun  6 2010 >>
  36. 16:18:42
  37. Writing library                          : libebml v1.0.0 + libmatroska v1.0.0
  38.  
  39. Video
  40. ID                                       : 1
  41. Format                                   : AVC
  42. Format/Info                              : Advanced Video Codec
  43. Format profile                           : High@L4.1
  44. Format settings, CABAC                   : Yes
  45. Format settings, ReFrames                : 9 frames
  46. Codec ID                                 : V_MPEG4/ISO/AVC
  47. Duration                                 : 1h 38mn
  48. Bit rate                                 : 5 738 Kbps
  49. Width                                    : 1 280 pixels
  50. Height                                   : 528 pixels
  51. Display aspect ratio                     : 2.40:1
  52. Frame rate mode                          : Constant
  53. Frame rate                               : 23.976 fps
  54. Color space                              : YUV
  55. Chroma subsampling                       : 4:2:0
  56. Bit depth                                : 8 bits
  57. Scan type                                : Progressive
  58. Bits/(Pixel*Frame)                       : 0.354
  59. Stream size                              : 3.96 GiB (88%)
  60. Writing library                          : x264 core 68 r1195bm 5d75a9b
  61. Encoding settings                        : cabac=1 / ref=9 / deblock=1:-1:-1 / analyse=0x3:0x113 / me=umh >>
  62. / subme=7 / psy_rd=0.0:2.0 / mixed_ref=1 / me_range=16 / chroma_me=1 / trellis=2 / 8x8dct=1 / cqm=0 / >>
  63. deadzone=21,11 / chroma_qp_offset=-2 / threads=1 / thread_queue=1 / nr=0 / decimate=1 / mbaff=0 / >>
  64. bframes=5 / b_pyramid=0 / b_adapt=1 / b_bias=0 / direct=1 / wpredb=1 / keyint=250 / keyint_min=25 / >>
  65. scenecut=40 / rc=crf / crf=16.0 / qcomp=0.60 / qpmin=10 / qpmax=51 / qpstep=4 / ip_ratio=1.40 / >>
  66. pb_ratio=1.30 / aq=2:1.00
  67. Default                                  : Yes
  68. Forced                                   : No
  69.  
  70. Audio
  71. ID                                       : 2
  72. Format                                   : AC-3
  73. Format/Info                              : Audio Coding 3
  74. Mode extension                           : CM (complete main)
  75. Format settings, Endianness              : Big
  76. Codec ID                                 : A_AC3
  77. Duration                                 : 1h 38mn
  78. Bit rate mode                            : Constant
  79. Bit rate                                 : 640 Kbps
  80. Channel(s)                               : 6 channels
  81. Channel positions                        : Front: L C R, Side: L R, LFE
  82. Sampling rate                            : 48.0 KHz
  83. Bit depth                                : 16 bits
  84. Compression mode                         : Lossy
  85. Stream size                              : 452 MiB (10%)
  86. Default                                  : Yes
  87. Forced                                   : No
  88.  
  89. SOURCE:
  90. Retail RA Blu-Ray DISC
  91.  
  92. NOTES:
  93. Here's the 720p x264 version encoded from the retail blu-ray disc, enjoy.
  94.  
  95. AXED! We do this better.
  96.  
  97. SCREENS:
  98. http://imageshack.us/a/img545/2451/scrncp00006.png
  99. http://imageshack.us/a/img689/865/scrncp00010.png
  100. http://imageshack.us/a/img17/9197/scrncp00012.png
  101. http://imageshack.us/a/img401/6402/scrncp00015.png
  102. http://imageshack.us/a/img836/8049/scrncp00019.png
  103.  
  104. [video=http://www.youtube.com/watch?v=LQpGbA4mHZE]