Posted : 1 Year ago

  1. http://www.imdb.com/title/tt2132301/
  2.  
  3.  When a crime-ridden city's mayor and his re-election opponent are both assassinated in quick succession, two investigating FBI agents discover that City Hall holds more secrets than just the identity of the killer.
  4.  
  5.  Format                                   : AVI
  6.  Format/Info                              : Audio Video Interleave
  7.  File size                                : 1.43 GiB
  8.  Duration                                 : 1h 36mn
  9.  Overall bit rate                         : 2 107 Kbps
  10.  Writing application                      : VirtualDubMod 1.5.10.2 (build 2540/release)
  11.  Writing library                          : VirtualDubMod build 2540/release
  12.  
  13.  Video
  14.  ID                                       : 0
  15.  Format                                   : MPEG-4 Visual
  16.  Format profile                           : Advanced Simple@L5
  17.  Format settings, BVOP                    : 2
  18.  Format settings, QPel                    : No
  19.  Format settings, GMC                     : No warppoints
  20.  Format settings, Matrix                  : Default (H.263)
  21.  Muxing mode                              : Packed bitstream
  22.  Codec ID                                 : XVID
  23.  Codec ID/Hint                            : XviD
  24.  Duration                                 : 1h 36mn
  25.  Bit rate                                 : 1 905 Kbps
  26.  Width                                    : 720 pixels
  27.  Height                                   : 400 pixels
  28.  Display aspect ratio                     : 16:9
  29.  Frame rate                               : 23.976 fps
  30.  Color space                              : YUV
  31.  Chroma subsampling                       : 4:2:0
  32.  Bit depth                                : 8 bits
  33.  Scan type                                : Progressive
  34.  Compression mode                         : Lossy
  35.  Bits/(Pixel*Frame)                       : 0.276
  36.  Stream size                              : 1.29 GiB (90%)
  37.  Writing library                          : XviD 64
  38.  
  39.  Audio
  40.  ID                                       : 1
  41.  Format                                   : AC-3
  42.  Format/Info                              : Audio Coding 3
  43.  Mode extension                           : CM (complete main)
  44.  Format settings, Endianness              : Big
  45.  Codec ID                                 : 2000
  46.  Duration                                 : 1h 36mn
  47.  Bit rate mode                            : Constant
  48.  Bit rate                                 : 192 Kbps
  49.  Channel(s)                               : 2 channels
  50.  Channel positions                        : Front: L R
  51.  Sampling rate                            : 48.0 KHz
  52.  Bit depth                                : 16 bits
  53.  Compression mode                         : Lossy
  54.  Stream size                              : 133 MiB (9%)
  55.  Alignment                                : Split accross interleaves
  56.  Interleave, duration                     : 42 ms (1.00 video frame)
  57.  Interleave, preload duration             : 500 ms