Posted : 6 Months ago

  1. Video
  2. ID                                       : 1
  3. Format                                   : AVC
  4. Format/Info                              : Advanced Video Codec
  5. Format profile                           : High@L3.1
  6. Format settings, CABAC                   : Yes
  7. Format settings, ReFrames                : 5 frames
  8. Codec ID                                 : V_MPEG4/ISO/AVC
  9. Duration                                 : 1h 23mn
  10. Bit rate                                 : 1 143 Kbps
  11. Width                                    : 720 pixels
  12. Height                                   : 404 pixels
  13. Display aspect ratio                     : 16:9
  14. Frame rate mode                          : Constant
  15. Frame rate                               : 23.976 (24000/1001) fps
  16. Color space                              : YUV
  17. Chroma subsampling                       : 4:2:0
  18. Bit depth                                : 8 bits
  19. Scan type                                : Progressive
  20. Bits/(Pixel*Frame)                       : 0.164
  21. Stream size                              : 681 MiB (90%)
  22. Writing library                          : x264 core 148 r2705 3f5ed56
  23. Encoding settings                        : cabac=1 / ref=5 / deblock=1:0:0 / analyse=0x3:0x113 / me=umh / subme=8 / psy=1 / psy_rd=1.00:0.00 / mixed_ref=1 / me_range=16 / chroma_me=1 / trellis=1 / 8x8dct=1 / cqm=0 / deadzone=21,11 / fast_pskip=1 / chroma_qp_offset=-2 / threads=12 / lookahead_threads=2 / sliced_threads=0 / nr=0 / decimate=1 / interlaced=0 / bluray_compat=0 / constrained_intra=0 / bframes=3 / b_pyramid=2 / b_adapt=2 / b_bias=0 / direct=3 / weightb=1 / open_gop=0 / weightp=2 / keyint=250 / keyint_min=23 / scenecut=40 / intra_refresh=0 / rc_lookahead=50 / rc=crf / mbtree=1 / crf=19.0 / qcomp=0.60 / qpmin=0 / qpmax=69 / qpstep=4 / ip_ratio=1.40 / aq=1:1.00
  24. Default                                  : Yes
  25. Forced                                   : No
  26. Color range                              : Limited
  27. Matrix coefficients                      : BT.709
  28.  
  29. Audio
  30. ID                                       : 2
  31. Format                                   : AAC
  32. Format/Info                              : Advanced Audio Codec
  33. Format profile                           : LC
  34. Codec ID                                 : A_AAC
  35. Duration                                 : 1h 23mn
  36. Bit rate                                 : 128 Kbps
  37. Channel(s)                               : 2 channels
  38. Channel positions                        : Front: L R
  39. Sampling rate                            : 48.0 KHz
  40. Frame rate                               : 46.875 fps (1024 spf)
  41. Compression mode                         : Lossy
  42. Delay relative to video                  : 20ms
  43. Stream size                              : 76.3 MiB (10%)
  44. Language                                 : English
  45. Default                                  : Yes
  46. Forced                                   : No
  47.  
  48. Text
  49. ID                                       : 3
  50. Format                                   : UTF-8
  51. Codec ID                                 : S_TEXT/UTF8
  52. Codec ID/Info                            : UTF-8 Plain Text
  53. Duration                                 : 1h 23mn
  54. Bit rate                                 : 101 bps
  55. Count of elements                        : 1775
  56. Stream size                              : 62.1 KiB (0%)
  57. Language                                 : English