Posted : 6 Months ago

  1. General
  2. Unique ID                                : 0 (0x0)
  3. Complete name                            : D:\b-b-b.1993.REMASTERED.720p.BluRay.x264-PHOBOS.mkv
  4. Format                                   : Matroska
  5. Format version                           : Version 4 / Version 2
  6. File size                                : 5.47 GiB
  7. Duration                                 : 1h 53mn
  8. Overall bit rate                         : 6 878 Kbps
  9. Encoded date                             : UTC 2010-02-22 21:41:29
  10. Writing application                      : no_variable_data
  11. Writing library                          : no_variable_data / Lavf56.40.101
  12.  
  13. Video
  14. ID                                       : 1
  15. Format                                   : AVC
  16. Format/Info                              : Advanced Video Codec
  17. Format profile                           : High@L4.1
  18. Format settings, CABAC                   : Yes
  19. Format settings, ReFrames                : 12 frames
  20. Codec ID                                 : V_MPEG4/ISO/AVC
  21. Duration                                 : 1h 53mn
  22. Bit rate                                 : 5 365 Kbps
  23. Width                                    : 1 280 pixels
  24. Height                                   : 536 pixels
  25. Display aspect ratio                     : 2.40:1
  26. Frame rate mode                          : Constant
  27. Frame rate                               : 24.000 fps
  28. Color space                              : YUV
  29. Chroma subsampling                       : 4:2:0
  30. Bit depth                                : 8 bits
  31. Scan type                                : Progressive
  32. Bits/(Pixel*Frame)                       : 0.326
  33. Stream size                              : 4.16 GiB (76%)
  34. Writing library                          : x264 core 148 r2694M 3b70645
  35. Encoding settings                        : cabac=1 / ref=12 / deblock=1:0:0 / analyse=0x3:0x133 / me=umh / subme=10 / psy=1 / psy_rd=1.00:0.00 / mixed_ref=1 / me_range=24 / chroma_me=1 / trellis=2 / 8x8dct=1 / cqm=0 / deadzone=21,11 / fast_pskip=1 / chroma_qp_offset=-2 / threads=12 / lookahead_threads=2 / sliced_threads=0 / nr=0 / decimate=1 / interlaced=0 / bluray_compat=0 / constrained_intra=0 / bframes=8 / b_pyramid=2 / b_adapt=2 / b_bias=0 / direct=3 / weightb=1 / open_gop=0 / weightp=2 / keyint=250 / keyint_min=24 / scenecut=40 / intra_refresh=0 / rc_lookahead=60 / rc=2pass / mbtree=1 / bitrate=5365 / ratetol=1.0 / qcomp=0.60 / qpmin=0 / qpmax=69 / qpstep=4 / cplxblur=20.0 / qblur=0.5 / ip_ratio=1.40 / aq=1:1.00
  36. Default                                  : Yes
  37. Forced                                   : No
  38. Statistics Tags Issue                    : no_variable_data 1970-01-01 00:00:00 / no_variable_data 2010-02-22 21:41:29
  39. FromStats_BitRate                        : 5366313
  40. FromStats_Duration                       : 01:53:48.709000000
  41. FromStats_FrameCount                     : 163889
  42. FromStats_StreamSize                     : 4580623981
  43.  
  44. Audio
  45. ID                                       : 2
  46. Format                                   : DTS
  47. Format/Info                              : Digital Theater Systems
  48. Mode                                     : 16
  49. Format settings, Endianness              : Big
  50. Codec ID                                 : A_DTS
  51. Duration                                 : 1h 53mn
  52. Bit rate mode                            : Constant
  53. Bit rate                                 : 1 509 Kbps
  54. Channel(s)                               : 6 channels
  55. Channel positions                        : Front: L C R, Side: L R, LFE
  56. Sampling rate                            : 48.0 KHz
  57. Frame rate                               : 93.750 fps (512 spf)
  58. Bit depth                                : 24 bits
  59. Compression mode                         : Lossy
  60. Stream size                              : 1.20 GiB (22%)
  61. Language                                 : English
  62. Default                                  : Yes
  63. Forced                                   : No
  64. Statistics Tags Issue                    : no_variable_data 1970-01-01 00:00:00 / no_variable_data 2010-02-22 21:41:29
  65. FromStats_BitRate                        : 1508999
  66. FromStats_Duration                       : 01:53:48.715000000
  67. FromStats_FrameCount                     : 640192
  68. FromStats_StreamSize                     : 1288066304
  69.  
  70. Text #1
  71. ID                                       : 3
  72. Format                                   : UTF-8
  73. Codec ID                                 : S_TEXT/UTF8
  74. Codec ID/Info                            : UTF-8 Plain Text
  75. Language                                 : English
  76. Default                                  : No
  77. Forced                                   : No
  78. Statistics Tags Issue                    : no_variable_data 1970-01-01 00:00:00 / no_variable_data 2010-02-22 21:41:29
  79. FromStats_BitRate                        : 32
  80. FromStats_Duration                       : 01:50:15.743000000
  81. FromStats_FrameCount                     : 856
  82. FromStats_StreamSize                     : 26531
  83.  
  84. Text #2
  85. ID                                       : 4
  86. Format                                   : UTF-8
  87. Codec ID                                 : S_TEXT/UTF8
  88. Codec ID/Info                            : UTF-8 Plain Text
  89. Title                                    : SDH
  90. Language                                 : English
  91. Default                                  : No
  92. Forced                                   : No
  93. Statistics Tags Issue                    : no_variable_data 1970-01-01 00:00:00 / no_variable_data 2010-02-22 21:41:29
  94. FromStats_BitRate                        : 41
  95. FromStats_Duration                       : 01:53:10.326000000
  96. FromStats_FrameCount                     : 1089
  97. FromStats_StreamSize                     : 35186
  98.  
  99. Text #3
  100. ID                                       : 5
  101. Format                                   : UTF-8
  102. Codec ID                                 : S_TEXT/UTF8
  103. Codec ID/Info                            : UTF-8 Plain Text
  104. Language                                 : French
  105. Default                                  : No
  106. Forced                                   : No
  107. Statistics Tags Issue                    : no_variable_data 1970-01-01 00:00:00 / no_variable_data 2010-02-22 21:41:29
  108. FromStats_BitRate                        : 23
  109. FromStats_Duration                       : 01:53:19.167000000
  110. FromStats_FrameCount                     : 783
  111. FromStats_StreamSize                     : 19710
  112.  
  113. Menu
  114. 00:00:00.000                             : en:00:00:00.000
  115. 00:11:55.583                             : en:00:11:55.583
  116. 00:24:28.708                             : en:00:24:28.708
  117. 00:35:45.292                             : en:00:35:45.292
  118. 00:49:20.208                             : en:00:49:20.208
  119. 01:06:40.583                             : en:01:06:40.583
  120. 01:18:16.625                             : en:01:18:16.625
  121. 01:30:01.042                             : en:01:30:01.042
  122. 01:42:58.083                             : en:01:42:58.083
  123.  
  124.