Posted : 1 Year ago

  1. Source-ONLiNE
  2.  
  3.  Complete name                            : In Our Nature 2012 720p HDRip-OFFLiNE.mkv
  4.  Format                                   : Matroska
  5.  Format version                           : Version 4 / Version 2
  6.  File size                                : 3.06 GiB
  7.  Duration                                 : 1h 42mn
  8.  Overall bit rate                         : 4 263 Kbps
  9.  Encoded date                             : UTC 2013-02-05 07:38:43
  10.  Writing application                      : mkvmerge v6.0.0 ('Coming Up For Air') built on Jan 20 2013 09:52:00
  11.  Writing library                          : libebml v1.3.0 + libmatroska v1.4.0
  12.  
  13.  Video
  14.  ID                                       : 1
  15.  Format                                   : AVC
  16.  Format/Info                              : Advanced Video Codec
  17.  Format profile                           : Main@L3.1
  18.  Format settings, CABAC                   : No
  19.  Format settings, ReFrames                : 2 frames
  20.  Format settings, GOP                     : N=1
  21.  Codec ID                                 : V_MPEG4/ISO/AVC
  22.  Duration                                 : 1h 42mn
  23.  Bit rate                                 : 3 795 Kbps
  24.  Width                                    : 1 280 pixels
  25.  Height                                   : 544 pixels
  26.  Display aspect ratio                     : 2.35:1
  27.  Frame rate mode                          : Constant
  28.  Frame rate                               : 23.976 fps
  29.  Color space                              : YUV
  30.  Chroma subsampling                       : 4:2:0
  31.  Bit depth                                : 8 bits
  32.  Scan type                                : Progressive
  33.  Bits/(Pixel*Frame)                       : 0.227
  34.  Stream size                              : 2.72 GiB (89%)
  35.  Language                                 : English
  36.  Default                                  : Yes
  37.  Forced                                   : No
  38.  Color primaries                          : BT.709
  39.  Transfer characteristics                 : BT.709
  40.  Matrix coefficients                      : BT.709
  41.  
  42.  Audio
  43.  ID                                       : 2
  44.  Format                                   : AC-3
  45.  Format/Info                              : Audio Coding 3
  46.  Mode extension                           : CM (complete main)
  47.  Format settings, Endianness              : Big
  48.  Codec ID                                 : A_AC3
  49.  Duration                                 : 1h 42mn
  50.  Bit rate mode                            : Constant
  51.  Bit rate                                 : 384 Kbps
  52.  Channel(s)                               : 6 channels
  53.  Channel positions                        : Front: L C R, Side: L R, LFE
  54.  Sampling rate                            : 48.0 KHz
  55.  Bit depth                                : 16 bits
  56.  Compression mode                         : Lossy
  57.  Stream size                              : 282 MiB (9%)
  58.  Language                                 : English
  59.  Default                                  : Yes
  60.  Forced                                   : No