Posted : 9 Months ago

  1. [IMG]http://lookpic.com/O/i2/1176/vEKliHqe.jpeg[/IMG]
  2.  
  3. [IMG]http://lookpic.com/O/i2/153/oulJnea.jpeg[/IMG]
  4.  
  5. [IMG]http://lookpic.com/O/i2/607/FJL3GBD.jpeg[/IMG]
  6.  
  7. Source: THC
  8. Audio: A Friend....THANKS
  9.  
  10. http://www.imdb.com/title/tt2334879/
  11.  
  12. Format                           : MPEG-4
  13. Format profile                   : Base Media
  14. Codec ID                         : isom
  15. File size                        : 1.27 GiB
  16. Duration                         : 2h 5mn
  17. Overall bit rate                 : 1 450 Kbps
  18. Encoded date                     : UTC 2013-07-05 09:59:14
  19. Tagged date                      : UTC 2013-07-05 09:59:14
  20.  
  21. Video
  22. ID                               : 1
  23. Format                           : AVC
  24. Format/Info                      : Advanced Video Codec
  25. Format profile                   : High@L3.0
  26. Format settings, CABAC           : Yes
  27. Format settings, ReFrames        : 5 frames
  28. Format settings, GOP             : M=4, N=16
  29. Codec ID                         : avc1
  30. Codec ID/Info                    : Advanced Video Coding
  31. Duration                         : 2h 5mn
  32. Bit rate mode                    : Variable
  33. Bit rate                         : 1 256 Kbps
  34. Maximum bit rate                 : 4 976 Kbps
  35. Width                            : 720 pixels
  36. Height                           : 304 pixels
  37. Display aspect ratio             : 2.35:1
  38. Frame rate mode                  : Constant
  39. Frame rate                       : 24.000 fps
  40. Color space                      : YUV
  41. Chroma subsampling               : 4:2:0
  42. Bit depth                        : 8 bits
  43. Scan type                        : Progressive
  44. Bits/(Pixel*Frame)               : 0.239
  45. Stream size                      : 1.10 GiB (87%)
  46. Title                            : 264#trackID=1:fps=24@GPAC0.5.1-DEV-rev4283
  47. Writing library                  : x264 core 133 r2334 a3ac64b
  48. Encoding settings                : cabac=1 / ref=5 / deblock=1:-1:-1 / analyse=0x3:0x133 / me=umh / subme=7 / psy=1 / psy_rd=1.10:0.15 / mixed_ref=1 / me_range=16 / chroma_me=1 / trellis=1 / 8x8dct=1 / cqm=0 / deadzone=21,11 / fast_pskip=1 / chroma_qp_offset=-5 / threads=6 / lookahead_threads=1 / sliced_threads=0 / nr=0 / decimate=1 / interlaced=0 / bluray_compat=0 / constrained_intra=0 / bframes=3 / b_pyramid=2 / b_adapt=1 / b_bias=0 / direct=1 / weightb=1 / open_gop=0 / weightp=2 / keyint=240 / keyint_min=24 / scenecut=40 / intra_refresh=0 / rc_lookahead=80 / rc=crf / mbtree=1 / crf=17.0 / qcomp=0.60 / qpmin=0 / qpmax=69 / qpstep=4 / ip_ratio=1.40 / aq=1:1.00
  49. Encoded date                     : UTC 2013-07-05 09:59:14
  50. Tagged date                      : UTC 2013-07-05 10:00:16
  51.  
  52. Audio
  53. ID                               : 2
  54. Format                           : AC-3
  55. Format/Info                      : Audio Coding 3
  56. Mode extension                   : CM (complete main)
  57. Codec ID                         : ac-3
  58. Duration                         : 2h 5mn
  59. Bit rate mode                    : Constant
  60. Bit rate                         : 192 Kbps
  61. Channel(s)                       : 2 channels
  62. Channel positions                : Front: L R
  63. Sampling rate                    : 48.0 KHz
  64. Bit depth                        : 16 bits
  65. Stream size                      : 172 MiB (13%)
  66. Title                            : ac3#trackID=1@GPAC0.5.1-DEV-rev4283
  67. Encoded date                     : UTC 2013-07-05 09:59:56
  68. Tagged date                      : UTC 2013-07-05 10:00:16
  69.  
  70. Workdone:
  71.  
  72. Great source this time around...with line audio. First we rotated, crop out borders, fix perspective and resize to 720p and did our first encode. Took that file and did all types of filters like Camcorder denoiser to get rit of the mix color threw the video, Msu Denoiser, HQ Smoother to help get rit of video Noise. RGB, Contrast and Levels. We did notice video colors seem to appear and reappear threw some scene... but I think that how the video is cause of certain lighting.
  73.  
  74. AUDIO:
  75. Line audio had some static so we clean the noise out.. and did some audio enhancements with BASS and Treble and sync it with our video.
  76.  
  77. P.S.
  78. Watch Video on a 39" HDTV and was perfectly in sync... V8.5 A9
  79. Completely watchable... SORRY NO SAMPLE cause we used megui to rip our 720p to a smaller size and used x264 for better quality.
  80.  
  81. ENJOY!
  82.  
  83. [IMG]http://lookpic.com/O/i2/943/Q0NAJ0P8.jpeg[/IMG]
  84.  
  85. [IMG]http://lookpic.com/O/i2/1229/rzHygZoQ.png[/IMG]
  86. [IMG]http://lookpic.com/O/i2/878/0z7Uejoo.png[/IMG]
  87. [IMG]http://lookpic.com/O/i2/660/iuEH9yHE.png[/IMG]
  88. [IMG]http://lookpic.com/O/i2/175/Lz9GVp1M.png[/IMG]
  89. [IMG]http://lookpic.com/O/i2/728/hvTD99D5.png[/IMG]
  90. [IMG]http://lookpic.com/O/i2/975/8TqrAMcR.png[/IMG]
  91. [IMG]http://lookpic.com/O/i2/172/iqYvhXb0.png[/IMG]
  92. [IMG]http://lookpic.com/O/i2/159/YaWBuk4A.png[/IMG]
  93. [IMG]http://lookpic.com/O/i2/1109/VFBOWjxJ.png[/IMG]
  94. [IMG]http://lookpic.com/O/i2/1094/xW3EBOR0.png[/IMG]
  95. [IMG]http://lookpic.com/O/i2/1473/5no16B9T.png[/IMG]
  96. [IMG]http://lookpic.com/O/i2/1556/rby10uGj.png[/IMG]
  97.  
  98. THC JOKE:
  99.  
  100. Q: What do you call one bowl between three tokers ?
  101. A: Malnutrition.
  102.  
  103. +1 REP if you like this release.... and please leave a COMMENT..THANKS
  104.  
  105. THC GROUP
  106.  
  107.  
  108.