Posted : 1 Year ago

  1. http://www.imdb.com/title/tt1925479
  2.  
  3.  Source : Vobs Thx
  4.  
  5.  
  6. Quote:Video
  7.  ID                                       : 0
  8.  Format                                   : MPEG-4 Visual
  9.  Duration                                 : 1h 37mn
  10.  Bit rate                                 : 1 114 Kbps
  11.  Width                                    : 720 pixels
  12.  Height                                   : 304 pixels
  13.  Display aspect ratio                     : 2.35:1
  14.  Frame rate                               : 23.976 fps
  15.  Color space                              : YUV
  16.  Chroma subsampling                       : 4:2:0
  17.  Compression mode                         : Lossy
  18.  Bits/(Pixel*Frame)                       : 0.212
  19.  Stream size                              : 776 MiB (77%)
  20.  
  21.  Audio
  22.  ID                                       : 1
  23.  Format                                   : MPEG Audio
  24.  Format version                           : Version 1
  25.  Format profile                           : Layer 3
  26.  Mode                                     : Joint stereo
  27.  Codec ID                                 : 55
  28.  Codec ID/Hint                            : MP3
  29.  Duration                                 : 1h 37mn
  30.  Bit rate mode                            : Constant
  31.  Bit rate                                 : 320 Kbps
  32.  Channel(s)                               : 2 channels
  33.  Sampling rate                            : 48.0 KHz
  34.  Compression mode                         : Lossy
  35.  Stream size                              : 223 MiB (22%)
  36.  Alignment                                : Aligned on interleaves
  37.  Interleave, duration                     : 24 ms (0.58 video frame)
  38.  Writing library                          : LAME3.98.4