Posted : 1 Year ago

  1. General
  2. Complete name                            : Argo 2012 DVDscr Xvid Ac3-ADTRG.avi
  3. Source                                   : Argo 2012 DVDSCR XviD-EDAW2013
  4. Format                                   : AVI
  5. Format/Info                              : Audio Video Interleave
  6. File size                                : 1.76 GiB
  7. Duration                                 : 2h 0mn
  8. Overall bit rate                         : 2 096 Kbps
  9. Writing application                      : VirtualDubMod 1.5.10.2 (build 2540/release)
  10. Writing library                          : VirtualDubMod build 2540/release
  11.  
  12. Video
  13. ID                                       : 0
  14. Format                                   : MPEG-4 Visual
  15. Format profile                           : Advanced Simple@L5
  16. Format settings, BVOP                    : 2
  17. Format settings, QPel                    : No
  18. Format settings, GMC                     : No warppoints
  19. Format settings, Matrix                  : Default (H.263)
  20. Muxing mode                              : Packed bitstream
  21. Codec ID                                 : XVID
  22. Codec ID/Hint                            : XviD
  23. Duration                                 : 2h 0mn
  24. Bit rate                                 : 1 700 Kbps
  25. Width                                    : 720 pixels
  26. Height                                   : 400 pixels
  27. Display aspect ratio                     : 16:9
  28. Frame rate                               : 29.970 fps
  29. Color space                              : YUV
  30. Chroma subsampling                       : 4:2:0
  31. Bit depth                                : 8 bits
  32. Scan type                                : Progressive
  33. Compression mode                         : Lossy
  34. Bits/(Pixel*Frame)                       : 0.197
  35. Stream size                              : 1.43 GiB (81%)
  36. Writing library                          : XviD 64
  37.  
  38. Audio
  39. ID                                       : 1
  40. Format                                   : AC-3
  41. Format/Info                              : Audio Coding 3
  42. Mode extension                           : CM (complete main)
  43. Codec ID                                 : 2000
  44. Duration                                 : 2h 0mn
  45. Bit rate mode                            : Constant
  46. Bit rate                                 : 384 Kbps
  47. Channel(s)                               : 2 channels
  48. Channel positions                        : Front: L R
  49. Sampling rate                            : 48.0 KHz
  50. Bit depth                                : 16 bits
  51. Compression mode                         : Lossy
  52. Delay relative to video                  : 22ms
  53. Stream size                              : 330 MiB (18%)
  54. Alignment                                : Split accross interleaves
  55. Interleave, duration                     : 33 ms (1.00 video frame)
  56. Interleave, preload duration             : 500 ms
  57.  
  58. Notes :
  59.  
  60. FIXED too much to mention
  61. enjoy until better arrives :)
  62.  
  63. Screens :
  64.  
  65. [IMG]http://lookpic.com/O/i2/1391/Dm1SCRO.jpeg[/IMG]
  66. [IMG]http://lookpic.com/O/i2/1686/iv19LRiQ.jpeg[/IMG]
  67. [IMG]http://lookpic.com/O/i2/1152/4wGIjzNA.jpeg[/IMG]
  68. [IMG]http://lookpic.com/O/i2/213/6ghKPZLZ.jpeg[/IMG]
  69. [IMG]http://lookpic.com/O/i2/1836/mdukwVLu.jpeg[/IMG]
  70. [IMG]http://lookpic.com/O/i2/1543/eB7c3GAG.jpeg[/IMG]
  71. [IMG]http://lookpic.com/O/i2/919/HhHnr43z.jpeg[/IMG]
  72. [IMG]http://lookpic.com/O/i2/773/j7icRd6V.jpeg[/IMG]
  73. [IMG]http://lookpic.com/O/i2/868/mvNGq7Hf.jpeg[/IMG]
  74. Don't fear the Atomic Dragon..... Embrace it
  75.  
  76. Greetz :
  77.  
  78. 26k, HS, ZeUs, inferno, devildeeds74
  79.  
  80. respect to all that try :)
  81.