Posted : 5 Months ago

  1. General
  2. Unique ID                                : 201930414684746162493102384535859206242 (0x97EA621B848F39B8B468BB4C29359862)
  3. Complete name                            : D:\atomic.shark.2016.hdtv.x264-w4f.mkv
  4. Format                                   : Matroska
  5. Format version                           : Version 4 / Version 2
  6. File size                                : 1.06 GiB
  7. Duration                                 : 1h 24mn
  8. Overall bit rate                         : 1 808 Kbps
  9. Encoded date                             : UTC 2016-08-01 18:55:44
  10. Writing application                      : mkvmerge v9.3.1 ('Mask Machine') 64bit
  11. Writing library                          : libebml v1.3.4 + libmatroska v1.4.5
  12.  
  13. Video
  14. ID                                       : 1
  15. Format                                   : AVC
  16. Format/Info                              : Advanced Video Codec
  17. Format profile                           : High@L3.1
  18. Format settings, CABAC                   : Yes
  19. Format settings, ReFrames                : 5 frames
  20. Codec ID                                 : V_MPEG4/ISO/AVC
  21. Duration                                 : 1h 24mn
  22. Bit rate                                 : 1 679 Kbps
  23. Width                                    : 720 pixels
  24. Height                                   : 404 pixels
  25. Display aspect ratio                     : 16:9
  26. Frame rate mode                          : Constant
  27. Frame rate                               : 23.976 (24000/1001) fps
  28. Color space                              : YUV
  29. Chroma subsampling                       : 4:2:0
  30. Bit depth                                : 8 bits
  31. Scan type                                : Progressive
  32. Bits/(Pixel*Frame)                       : 0.241
  33. Stream size                              : 1 012 MiB (93%)
  34. Writing library                          : x264 core 148 r2705 3f5ed56
  35. Encoding settings                        : cabac=1 / ref=5 / deblock=1:0:0 / analyse=0x3:0x113 / me=umh / subme=8 / psy=1 / psy_rd=1.00:0.00 / mixed_ref=1 / me_range=16 / chroma_me=1 / trellis=1 / 8x8dct=1 / cqm=0 / deadzone=21,11 / fast_pskip=1 / chroma_qp_offset=-2 / threads=12 / lookahead_threads=2 / sliced_threads=0 / nr=0 / decimate=1 / interlaced=0 / bluray_compat=0 / constrained_intra=0 / bframes=3 / b_pyramid=2 / b_adapt=2 / b_bias=0 / direct=3 / weightb=1 / open_gop=0 / weightp=2 / keyint=250 / keyint_min=23 / scenecut=40 / intra_refresh=0 / rc_lookahead=50 / rc=crf / mbtree=1 / crf=19.0 / qcomp=0.60 / qpmin=0 / qpmax=69 / qpstep=4 / ip_ratio=1.40 / aq=1:1.00
  36. Default                                  : Yes
  37. Forced                                   : No
  38. Color range                              : Limited
  39. Matrix coefficients                      : BT.709
  40.  
  41. Audio
  42. ID                                       : 2
  43. Format                                   : AAC
  44. Format/Info                              : Advanced Audio Codec
  45. Format profile                           : LC
  46. Codec ID                                 : A_AAC
  47. Duration                                 : 1h 24mn
  48. Bit rate                                 : 126 Kbps
  49. Channel(s)                               : 2 channels
  50. Channel positions                        : Front: L R
  51. Sampling rate                            : 48.0 KHz
  52. Frame rate                               : 46.875 fps (1024 spf)
  53. Compression mode                         : Lossy
  54. Delay relative to video                  : 20ms
  55. Stream size                              : 76.0 MiB (7%)
  56. Language                                 : English
  57. Default                                  : Yes
  58. Forced                                   : No
  59.  
  60. Text
  61. ID                                       : 3
  62. Format                                   : UTF-8
  63. Codec ID                                 : S_TEXT/UTF8
  64. Codec ID/Info                            : UTF-8 Plain Text
  65. Duration                                 : 1h 23mn
  66. Bit rate                                 : 75 bps
  67. Count of elements                        : 1174
  68. Stream size                              : 46.1 KiB (0%)
  69. Language                                 : English
  70. Default                                  : No
  71. Forced                                   : No
  72.  
  73.