Posted : 1 Year ago

  1. [code]
  2.  Jack.Reacher.2012.720p.CAM.READNFO.XVID-26K
  3.  
  4. http://uk.imdb.com/title/tt0790724/
  5.  
  6.  Plot:
  7.  A homicide investigator digs deeper into a case involving a trained military sniper who shot five random victims.
  8.  
  9.  Sources - Audio-thnx....Thanks
  10.           VIDEO-1080p files.....Thanks
  11.           Subs-N/A....
  12.  Video
  13.  ID                                       : 0
  14.  Format                                   : MPEG-4 Visual
  15.  Format profile                           : Simple@L5
  16.  Format settings, BVOP                    : No
  17.  Format settings, QPel                    : No
  18.  Format settings, GMC                     : No warppoints
  19.  Format settings, Matrix                  : Default (H.263)
  20.  Codec ID                                 : XVID
  21.  Codec ID/Hint                            : XviD
  22.  Duration                                 : 2h 4mn
  23.  Bit rate                                 : 2 500 Kbps
  24.  Width                                    : 1 280 pixels
  25.  Height                                   : 608 pixels
  26.  Display aspect ratio                     : 2.105
  27.  Frame rate                               : 29.970 fps
  28.  Color space                              : YUV
  29.  Chroma subsampling                       : 4:2:0
  30.  Bit depth                                : 8 bits
  31.  Scan type                                : Progressive
  32.  Compression mode                         : Lossy
  33.  Bits/(Pixel*Frame)                       : 0.107
  34.  Stream size                              : 2.18 GiB (95%)
  35.  Writing library                          : XviD 64
  36.  
  37.  Audio
  38.  ID                                       : 1
  39.  Format                                   : MPEG Audio
  40.  Format version                           : Version 1
  41.  Format profile                           : Layer 3
  42.  Codec ID                                 : 55
  43.  Codec ID/Hint                            : MP3
  44.  Duration                                 : 2h 4mn
  45.  Bit rate mode                            : Constant
  46.  Bit rate                                 : 128 Kbps
  47.  Channel(s)                               : 2 channels
  48.  Sampling rate                            : 48.0 KHz
  49.  Compression mode                         : Lossy
  50.  Delay relative to video                  : 20ms
  51.  Stream size                              : 114 MiB (5%)
  52.  Alignment                                : Split accross interleaves
  53.  Interleave, duration                     : 16360 ms (490.30 video frames)
  54.  
  55.  Notes -
  56.  readnfo.. has the flicker on the video ran some deflicker filters and the regular filters for a cam... enjoy until
  57.  
  58.  line shows up.
  59.  
  60.  
  61.  XtremeEncode|CM8|RX|VISION|HDSCENE|xTriLL|DTRG|CRYS|BIDA|RX|REFILL|INSPiRAL|AXED|HOPE|Anonymous|NOIR|Blackjesus|
  62.  
  63.  Gabroo Punjab Deh|UNiQUE|DQ1|RESiSTANCE|HS||LEGION|STN|BOBBYBLUE|LIFT
  64.  
  65.  To all the people who have helped me  you know who you are
  66.  
  67.  Anything to offer email us @: 26k@hushmail.me
  68.  
  69. http://www.youtube.com/watch?v=2vAMxKvZqwU&feature=related <<bullying has to be stopped now!>>