Posted : 1 Year ago

  1. [img]http://img822.imageshack.us/img822/2220/gangstersquadver2xlg.jpg[/img]
  2.  
  3.  
  4. Genre:Action | Crime | Drama
  5. Language:English
  6. IMDb:http://www.imdb.com/title/tt1321870/
  7. Source:HP Thanks
  8. Encoder:Tony
  9.  
  10. Format                                   : AVI
  11. Format/Info                              : Audio Video Interleave
  12. File size                                : 1.55 GiB
  13. Duration                                 : 1h 43mn
  14. Overall bit rate                         : 2 132 Kbps
  15.  
  16. Video
  17. ID                                       : 0
  18. Format                                   : MPEG-4 Visual
  19. Format profile                           : Advanced Simple@L5
  20. Format settings, BVOP                    : 1
  21. Format settings, QPel                    : No
  22. Format settings, GMC                     : No warppoints
  23. Format settings, Matrix                  : Default (H.263)
  24. Codec ID                                 : XVID
  25. Codec ID/Hint                            : XviD
  26. Duration                                 : 1h 43mn
  27. Bit rate                                 : 1 992 Kbps
  28. Width                                    : 640 pixels
  29. Height                                   : 352 pixels
  30. Display aspect ratio                     : 16:9
  31. Frame rate                               : 29.970 fps
  32. Color space                              : YUV
  33. Chroma subsampling                       : 4:2:0
  34. Bit depth                                : 8 bits
  35. Scan type                                : Progressive
  36. Compression mode                         : Lossy
  37. Bits/(Pixel*Frame)                       : 0.295
  38. Stream size                              : 1.45 GiB (93%)
  39. Writing library                          : XviD 1.2.1 (UTC 2008-12-04)
  40.  
  41. Audio
  42. ID                                       : 1
  43. Format                                   : MPEG Audio
  44. Format version                           : Version 1
  45. Format profile                           : Layer 3
  46. Codec ID                                 : 55
  47. Codec ID/Hint                            : MP3
  48. Duration                                 : 1h 43mn
  49. Bit rate mode                            : Constant
  50. Bit rate                                 : 128 Kbps
  51. Channel(s)                               : 2 channels
  52. Sampling rate                            : 48.0 KHz
  53. Compression mode                         : Lossy
  54. Stream size                              : 95.1 MiB (6%)
  55. Alignment                                : Aligned on interleaves
  56. Interleave, duration                     : 33 ms (1.00 video frame)
  57. Interleave, preload duration             : 504 ms
  58. Writing library                          : LAME3.98r
  59. Encoding settings                        : -m s -V 4 -q 2 -lowpass 17 -b 128
  60.  
  61.    
  62. Plot:
  63.    Los Angeles, 1949: A secret crew of police officers led by two determined sergeants work together in an effort to take down the ruthless mob king Mickey Cohen who runs the city
  64.  
  65. TRAILER:
  66.  [video=http://www.youtube.com/watch?feature=player_embedded&v=zqKnD-g9QhY]
  67.  
  68. Greets:
  69.  CRYS,INSPiRAL,IMAGINE,LKRG,ADTRG,FXG,3Li,FLAWL3SS,CrEwSaDe,TA,iLLUSiON,EMBER,HOPE,GooN,BBnRG,NOGRP,ETRG,BHRG,iLLUMiNATi,MiSTERE.ViSiON,DTRG SAFCuk009,LU,TheFalcon007,MYSTiC,PrisM,Noir,WBZ,LAP,Rx,Kingdom,SAFCuk009+Fabreezy,HDLiTE,TWiZTED,ETRG.ELEKTRI4KA,MAGNAT,CM8
  70.                 And to all the other p2p grps past and present
  71.  
  72.  
  73.