Posted : 1 Year ago

  1. [img]http://i.imgur.com/2eDU5wg.jpg[/img]
  2.  
  3. Source: FROGFACE_BLUBITS
  4.  
  5. http://www.imdb.com/title/tt1545319/
  6.  
  7. Victor and his friends manage to outsmart the town bully and join the circus.
  8.  
  9. General
  10. Complete name                            : Freddy Frogface 2011 720p BDRip x264 AAC-OFFLiNE.mp4
  11. Format                                   : MPEG-4
  12. Format profile                           : Base Media
  13. Codec ID                                 : isom
  14. File size                                : 2.81 GiB
  15. Duration                                 : 1h 24mn
  16. Overall bit rate mode                    : Variable
  17. Overall bit rate                         : 4 750 Kbps
  18. Encoded date                             : UTC 2013-02-06 11:43:15
  19. Tagged date                              : UTC 2013-02-06 11:43:15
  20.  
  21. Video
  22. ID                                       : 1
  23. Format                                   : AVC
  24. Format/Info                              : Advanced Video Codec
  25. Format profile                           : High@L4.1
  26. Format settings, CABAC                   : Yes
  27. Format settings, ReFrames                : 3 frames
  28. Codec ID                                 : avc1
  29. Codec ID/Info                            : Advanced Video Coding
  30. Duration                                 : 1h 24mn
  31. Bit rate mode                            : Variable
  32. Bit rate                                 : 4 431 Kbps
  33. Maximum bit rate                         : 40.0 Mbps
  34. Width                                    : 1 280 pixels
  35. Height                                   : 688 pixels
  36. Display aspect ratio                     : 1.85:1
  37. Frame rate mode                          : Constant
  38. Frame rate                               : 23.976 fps
  39. Color space                              : YUV
  40. Chroma subsampling                       : 4:2:0
  41. Bit depth                                : 8 bits
  42. Scan type                                : Progressive
  43. Bits/(Pixel*Frame)                       : 0.210
  44. Stream size                              : 2.62 GiB (93%)
  45. Writing library                          : x264 core 129 r2245 bc13772
  46.  
  47. Audio
  48. ID                                       : 2
  49. Format                                   : AAC
  50. Format/Info                              : Advanced Audio Codec
  51. Format profile                           : LC
  52. Codec ID                                 : 40
  53. Duration                                 : 1h 24mn
  54. Bit rate mode                            : Variable
  55. Bit rate                                 : 316 Kbps
  56. Maximum bit rate                         : 389 Kbps
  57. Channel(s)                               : 6 channels
  58. Channel positions                        : Front: L C R, Side: L R, LFE
  59. Sampling rate                            : 48.0 KHz
  60. Compression mode                         : Lossy
  61. Stream size                              : 191 MiB (7%)
  62. Language                                 : English
  63. Encoded date                             : UTC 2013-02-05 20:43:28
  64. Tagged date                              : UTC 2013-02-06 11:45:14
  65.  
  66. [IMG]http://i.imgur.com/WUiVKiV.jpg[/IMG]
  67. [IMG]http://i.imgur.com/5qwSGxG.jpg[/IMG]
  68. [IMG]http://i.imgur.com/Zokfg8p.jpg[/IMG]
  69.  
  70. Greets And Respect..To Those Who Have Earned IT..