Posted : 1 Year ago

  1. Seven Psychopaths 2012 DVDRip R5 XViD-TiCKLE TiME
  2.  
  3.  
  4.  
  5.  
  6.  
  7.  Format                                   : AVI
  8.  Format/Info                              : Audio Video Interleave
  9.  File size                                : 1.40 GiB
  10.  Duration                                 : 1h 45mn
  11.  Overall bit rate                         : 1 891 Kbps
  12.  Writing application                      : VirtualDubMod 1.5.10.3 | www.virtualdub-fr.org || (build 2550/release)
  13.  Writing library                          : VirtualDub build 32842/release
  14.  
  15.  Video
  16.  ID                                       : 0
  17.  Format                                   : MPEG-4 Visual
  18.  Format profile                           : Advanced Simple@L5
  19.  Format settings, BVOP                    : 2
  20.  Format settings, QPel                    : No
  21.  Format settings, GMC                     : No warppoints
  22.  Format settings, Matrix                  : Default (H.263)
  23.  Muxing mode                              : Packed bitstream
  24.  Codec ID                                 : XVID
  25.  Codec ID/Hint                            : XviD
  26.  Duration                                 : 1h 45mn
  27.  Bit rate                                 : 1 658 Kbps
  28.  Width                                    : 704 pixels
  29.  Height                                   : 288 pixels
  30.  Display aspect ratio                     : 2.40:1
  31.  Frame rate                               : 25.000 fps
  32.  Color space                              : YUV
  33.  Chroma subsampling                       : 4:2:0
  34.  Bit depth                                : 8 bits
  35.  Scan type                                : Progressive
  36.  Compression mode                         : Lossy
  37.  Bits/(Pixel*Frame)                       : 0.327
  38.  Stream size                              : 1.22 GiB (88%)
  39.  Writing library                          : XviD 64
  40.  
  41.  Audio
  42.  ID                                       : 1
  43.  Format                                   : MPEG Audio
  44.  Format version                           : Version 1
  45.  Format profile                           : Layer 3
  46.  Codec ID                                 : 55
  47.  Codec ID/Hint                            : MP3
  48.  Duration                                 : 1h 45mn
  49.  Bit rate mode                            : Constant
  50.  Bit rate                                 : 224 Kbps
  51.  Channel(s)                               : 2 channels
  52.  Sampling rate                            : 44.1 KHz
  53.  Compression mode                         : Lossy
  54.  Stream size                              : 169 MiB (12%)
  55.  Alignment                                : Split accross interleaves
  56.  Interleave, duration                     : 40 ms (1.00 video frame)
  57.  Interleave, preload duration             : 500 ms
  58.  Writing library                          : LAME3.98.4
  59.  
  60.  
  61.  
  62.  
  63.  
  64.  
  65.  Sources
  66.  
  67.  
  68.  
  69.  Video ...Sem.psihopatov.2012.D.DVD / Thx
  70.  
  71.  Audio ..........p2p DVDSCR / Thx
  72.  
  73.  
  74.  
  75.  
  76.  
  77.  Went with R5 ......no watermarks better allround