Posted : 1 Year ago

  1. [img]http://img823.imageshack.us/img823/1853/mamaka.jpg[/img]
  2. [code]
  3.  
  4. Mama.2013.CAM.XVID-26K
  5.  
  6. http://www.imdb.com/title/tt2023587/
  7.  
  8. Plot:
  9. Annabel and Lucas are faced with the challenge of raising his young nieces that were left alone in the forest for 5
  10.  
  11. years.... but how alone were they?
  12.  
  13. Sources - Audio-friend....Thanks :P
  14.           VIDEO-friend.....Thanks :P
  15.           Subs-N/A....
  16. Video
  17. ID                                       : 0
  18. Format                                   : MPEG-4 Visual
  19. Format profile                           : Simple@L5
  20. Format settings, BVOP                    : No
  21. Format settings, QPel                    : No
  22. Format settings, GMC                     : No warppoints
  23. Format settings, Matrix                  : Default (H.263)
  24. Codec ID                                 : XVID
  25. Codec ID/Hint                            : XviD
  26. Duration                                 : 1h 33mn
  27. Bit rate                                 : 1 694 Kbps
  28. Width                                    : 720 pixels
  29. Height                                   : 420 pixels
  30. Display aspect ratio                     : 1.714
  31. Frame rate                               : 29.970 fps
  32. Color space                              : YUV
  33. Chroma subsampling                       : 4:2:0
  34. Bit depth                                : 8 bits
  35. Scan type                                : Progressive
  36. Compression mode                         : Lossy
  37. Bits/(Pixel*Frame)                       : 0.187
  38. Stream size                              : 1.10 GiB (87%)
  39. Writing library                          : XviD 64
  40.  
  41. Audio
  42. ID                                       : 1
  43. Format                                   : MPEG Audio
  44. Format version                           : Version 1
  45. Format profile                           : Layer 3
  46. Mode                                     : Joint stereo
  47. Mode extension                           : MS Stereo
  48. Codec ID                                 : 55
  49. Codec ID/Hint                            : MP3
  50. Duration                                 : 1h 33mn
  51. Bit rate mode                            : Constant
  52. Bit rate                                 : 256 Kbps
  53. Channel(s)                               : 2 channels
  54. Sampling rate                            : 44.1 KHz
  55. Compression mode                         : Lossy
  56. Delay relative to video                  : 9ms
  57. Stream size                              : 171 MiB (13%)
  58. Alignment                                : Split accross interleaves
  59. Interleave, duration                     : 8189 ms (245.41 video frames)
  60.  
  61. Notes -
  62. the file was split into diffrent parts.. ran the video through various filters and here is the outcome... slight ar
  63.  
  64. due to camera tilt. has slight flicker due to the fps it was recorded at.. got rid of mot of it so u have been
  65.  
  66. warned.. overall not a bad cam.. audio is okay.. needed to change it's tempo a few times for sync ..enjoy till
  67.  
  68. better pops along!
  69.  
  70. [/code]
  71.  
  72. Screens:
  73. [img]http://imageshack.us/a/img23/9484/18331398.png[/img]
  74. [img]http://imageshack.us/a/img607/8863/57601935.png[/img]
  75. [img]http://imageshack.us/a/img145/2089/39539097.png[/img]
  76. [img]http://imageshack.us/a/img600/8418/85226615.png[/img]
  77. [img]http://imageshack.us/a/img832/3205/42145024.png[/img]
  78. [img]http://imageshack.us/a/img687/6230/77151633.png[/img]
  79. [img]http://imageshack.us/a/img845/4459/87556697.png[/img]
  80. [img]http://imageshack.us/a/img687/9636/53918970.png[/img]
  81. [img]http://imageshack.us/a/img59/2211/92822089.png[/img]
  82. [img]http://imageshack.us/a/img831/6312/58885141.png[/img]
  83.  
  84. Greetz:
  85. Silent Hill-HD|CM8|RX|VISION|HDSCENE|xTriLL|DTRG|CRYS|BIDA|RX|REFILL|INSPiRAL|AXED|HOPE|Anonymous|NOIR|Blackjesus|
  86.  
  87. Gabroo Punjab Deh|UNiQUE|DQ1|RESiSTANCE|HS||LEGION|STN|BOBBYBLUE|LIFT
  88.  
  89. To all the people who have helped me  you know who you are
  90.  
  91. Anything to offer email us @: 26k@hushmail.me
  92.  
  93. <<bullying has to be stopped now!>>