Posted : 1 Year ago

  1. Source : 720p DNL(Thanks)
  2.  
  3. http://www.imdb.com/title/tt0817545/
  4.  
  5. Format                                   : AVI
  6. Format/Info                              : Audio Video Interleave
  7. File size                                : 697 MiB
  8. Duration                                 : 1h 35mn
  9. Overall bit rate                         : 1 016 Kbps
  10. Writing library                          : VirtualDub build 32842/release
  11.  
  12. Video
  13. ID                                       : 0
  14. Format                                   : MPEG-4 Visual
  15. Format profile                           : Advanced Simple@L5
  16. Format settings, BVOP                    : 2
  17. Format settings, QPel                    : No
  18. Format settings, GMC                     : No warppoints
  19. Format settings, Matrix                  : Default (H.263)
  20. Muxing mode                              : Packed bitstream
  21. Codec ID                                 : XVID
  22. Codec ID/Hint                            : XviD
  23. Duration                                 : 1h 35mn
  24. Bit rate                                 : 878 Kbps
  25. Width                                    : 640 pixels
  26. Height                                   : 352 pixels
  27. Display aspect ratio                     : 16:9
  28. Frame rate                               : 23.976 fps
  29. Color space                              : YUV
  30. Chroma subsampling                       : 4:2:0
  31. Bit depth                                : 8 bits
  32. Scan type                                : Progressive
  33. Compression mode                         : Lossy
  34. Bits/(Pixel*Frame)                       : 0.163
  35. Stream size                              : 603 MiB (86%)
  36. Writing library                          : XviD 64
  37.  
  38. Audio
  39. ID                                       : 1
  40. Format                                   : MPEG Audio
  41. Format version                           : Version 1
  42. Format profile                           : Layer 3
  43. Mode                                     : Joint stereo
  44. Mode extension                           : MS Stereo
  45. Codec ID                                 : 55
  46. Codec ID/Hint                            : MP3
  47. Duration                                 : 1h 35mn
  48. Bit rate mode                            : Constant
  49. Bit rate                                 : 128 Kbps
  50. Channel(s)                               : 2 channels
  51. Sampling rate                            : 48.0 KHz
  52. Compression mode                         : Lossy
  53. Stream size                              : 87.8 MiB (13%)
  54. Alignment                                : Split accross interleaves
  55. Interleave, duration                     : 42 ms (1.00 video frame)
  56. Interleave, preload duration             : 500 ms
  57. Writing library                          : LAME3.98
  58.  
  59. Plot
  60. Religious conspiracy collides with urban crime in a story told from multiple perspectives.