Posted : 1 Year ago

  1. ##     ## #### ##     ## ########          ######  ##     ##  #######  
  2. ##     ##  ##  ##     ## ##               ##    ## ###   ### ##     ##
  3. ##     ##  ##  ##     ## ##               ##       #### #### ##     ##
  4. #########  ##  ##     ## ######   ####### ##       ## ### ##  #######  
  5. ##     ##  ##   ##   ##  ##               ##       ##     ## ##     ##
  6. ##     ##  ##    ## ##   ##               ##    ## ##     ## ##     ##
  7. ##     ## ####    ###    ########          ######  ##     ##  #######  
  8.  
  9. ###########  Thx Hive - CM8 Doing It Right The First Time  ###########
  10.  
  11.  
  12. [IMG]http://img541.imageshack.us/img541/3964/shadowgn.jpg[/IMG]
  13.  
  14.  
  15. Shadow.Dancer.2012.DVDRip.XVID.AC3.HQ.Hive-CM8
  16.  
  17.  
  18. Source: DVD-R (thx Elvis & BV)
  19.  
  20. Video.: 720x304 @bitrate 1700 2pass
  21. Audio.: English AC3 5.1 @448
  22. Subs..: English & English for hearing impaired in srt/subs
  23. Sample: Yes, included
  24.  
  25.  
  26. IMDb..: http://www.imdb.com/title/tt1770734/
  27.  
  28.  
  29. ENCODE
  30. DVD had good quality but was overbrightened and colours off...
  31. had to fix that and added sharpness. got very nice now. enjoy
  32.  
  33.  
  34. General
  35. Complete name                  : Shadow.Dancer.2012.DVDRip.XVID.AC3.HQ.Hive-CM8.avi
  36. Format                         : AVI
  37. Format/Info                    : Audio Video Interleave
  38. File size                      : 1.47 GiB
  39. Duration                       : 1h 37mn
  40. Overall bit rate               : 2 157 Kbps
  41. Writing application            : Nandub v1.0rc2
  42. Writing library                : Nandub build 1853/release
  43.  
  44. Video
  45. ID                             : 0
  46. Format                         : MPEG-4 Visual
  47. Format profile                 : Advanced Simple@L5
  48. Format settings, BVOP          : 2
  49. Format settings, QPel          : Yes
  50. Format settings, GMC           : No warppoints
  51. Format settings, Matrix        : Default (H.263)
  52. Muxing mode                    : Packed bitstream
  53. Codec ID                       : XVID
  54. Codec ID/Hint                  : XviD
  55. Duration                       : 1h 37mn
  56. Bit rate                       : 1 700 Kbps
  57. Width                          : 720 pixels
  58. Height                         : 304 pixels
  59. Display aspect ratio           : 2.35:1
  60. Frame rate                     : 25.000 fps
  61. Color space                    : YUV
  62. Chroma subsampling             : 4:2:0
  63. Bit depth                      : 8 bits
  64. Scan type                      : Progressive
  65. Compression mode               : Lossy
  66. Bits/(Pixel*Frame)             : 0.311
  67. Stream size                    : 1.16 GiB (79%)
  68. Writing library                : XviD 1.2.1 (UTC 2008-12-04)
  69.  
  70. Audio
  71. ID                             : 1
  72. Format                         : AC-3
  73. Format/Info                    : Audio Coding 3
  74. Mode extension                 : CM (complete main)
  75. Format settings, Endianness    : Big
  76. Codec ID                       : 2000
  77. Duration                       : 1h 37mn
  78. Bit rate mode                  : Constant
  79. Bit rate                       : 448 Kbps
  80. Channel(s)                     : 6 channels
  81. Channel positions              : Front: L C R, Side: L R, LFE
  82. Sampling rate                  : 48.0 KHz
  83. Bit depth                      : 16 bits
  84. Compression mode               : Lossy
  85. Delay relative to video        : 28ms
  86. Stream size                    : 313 MiB (21%)
  87. Alignment                      : Split accross interleaves
  88. Interleave, duration           : 40 ms (1.00 video frame)
  89. Interleave, preload duration   : 500 ms
  90.  
  91.  
  92. PLOT
  93. Set in 1990s Belfast, an active member of the IRA becomes an
  94. informant for MI5 in order to protect her son's welfare.
  95.  
  96.  
  97. CAST
  98. Clive Owen          ...     Mac
  99. Andrea Riseborough  ...     Colette McVeigh
  100. Gillian Anderson    ...     Kate Fletcher
  101.  
  102.  
  103. [img]http://img27.imageshack.us/img27/2269/sdsdfp.png[/img]
  104. [img]http://img841.imageshack.us/img841/1012/sdsdsdl.png[/img]
  105. [img]http://img7.imageshack.us/img7/613/sdsdsdsdo.png[/img]
  106. [img]http://img16.imageshack.us/img16/7861/sdsdssddsd.png[/img]
  107. [img]http://img824.imageshack.us/img824/8340/sdsdssdsddsd.png[/img]
  108. [img]http://img14.imageshack.us/img14/3606/sdsdssdsdsddsd.png[/img]
  109. [img]http://img651.imageshack.us/img651/1311/82315684.png[/img]
  110.  
  111.  
  112. [video=http://www.youtube.com/watch?v=hh_kYUKI5as]
  113.  
  114.  
  115. GREETZ
  116. ViSiON,SPK,SceneLovers,PRESTiGE,SANTi,3LT0N,YanKeeS,COPYxRIGHT,THC,T0XiC
  117. D2U,LKRG,ADTRG,Feel-Free,KoDeKinG,FLAWL3SS,WBZ,BHRG,26K,NOVA,MAGNET
  118. Unevano,BigVik,Rapeseed,SAFC,goldadvance,KaN1vE,Pinnz,Wayne,TED
  119. SeeN,jtr,Limey,ICONiK,4PlayHD,THEDEN-RG,eXceSs,AKS74u,HiGH
  120. Mr Hive,and most P2P groups
  121. Great Work Guys!
  122.  
  123. LOOKING FOR ANYTHING YOU WANT TO LOOK AND SOUND BETTER
  124.  
  125. CM8@hushmail.com
  126.