Posted : 1 Year ago

  1.              
  2. TITLE: Playing For Keeps 2012 CAM XviD - JOHN DOE
  3.  
  4.                                                                                                                  
  5. IMDB: http://www.imdb.com/title/tt1540128/
  6.  
  7.                                                                                        
  8. SOURCES:
  9. AUDIO - light
  10. VIDEO - russian                                                                                        
  11.  
  12.  
  13. STATS:
  14. Video
  15. ID                               : 0
  16. Format                           : MPEG-4 Visual
  17. Format profile                   : Advanced Simple@L5
  18. Format settings, BVOP            : 2
  19. Format settings, QPel            : No
  20. Format settings, GMC             : No warppoints
  21. Format settings, Matrix          : Default (MPEG)
  22. Muxing mode                      : Packed bitstream
  23. Codec ID                         : XVID
  24. Codec ID/Hint                    : XviD
  25. Duration                         : 1h 36mn
  26. Bit rate                         : 1 906 Kbps
  27. Width                            : 720 pixels
  28. Height                           : 288 pixels
  29. Display aspect ratio             : 2.500
  30. Frame rate                       : 25.000 fps
  31. Color space                      : YUV
  32. Chroma subsampling               : 4:2:0
  33. Bit depth                        : 8 bits
  34. Scan type                        : Progressive
  35. Compression mode                 : Lossy
  36. Bits/(Pixel*Frame)               : 0.368
  37. Stream size                      : 1.28 GiB (93%)
  38. Writing library                  : XviD 64
  39.  
  40. Audio
  41. ID                               : 1
  42. Format                           : MPEG Audio
  43. Format version                   : Version 1
  44. Format profile                   : Layer 3
  45. Mode                             : Joint stereo
  46. Mode extension                   : MS Stereo
  47. Codec ID                         : 55
  48. Codec ID/Hint                    : MP3
  49. Duration                         : 1h 36mn
  50. Bit rate mode                    : Constant
  51. Bit rate                         : 128 Kbps
  52. Channel(s)                       : 2 channels
  53. Sampling rate                    : 44.1 KHz
  54. Compression mode                 : Lossy
  55. Delay relative to video          : 100ms
  56. Stream size                      : 88.3 MiB (6%)
  57. Alignment                        : Split accross interleaves
  58. Interleave, duration             : 40 ms (1.00 video frame)
  59. Interleave, preload duration     : 500 ms
  60.  
  61.  
  62.  
  63. WORKDONE:
  64.  
  65. VIDEO - FIXED
  66. AUDIO - FIXED
  67.  
  68. SCREENIES:
  69. [IMG]http://i.imgur.com/m8qzn.png[/IMG]
  70. [IMG]http://i.imgur.com/Od40k.png[/IMG]
  71. [IMG]http://i.imgur.com/2k6RZ.png[/IMG]
  72. [IMG]http://i.imgur.com/26drT.png[/IMG]
  73. [IMG]http://i.imgur.com/IIA1p.png[/IMG]
  74. [IMG]http://i.imgur.com/Em32B.png[/IMG]