Posted : 1 Year ago

  1. http://www.imdb.com/title/tt1428538/
  2.  
  3.  Plot:In this spin on the fairy tale, Hansel & Gretel are now bounty hunters who track and kill witches all over the world. As the fabled Blood Moon approaches, the siblings encounter a new form of evil that might hold a secret to their past.
  4.  
  5.  
  6.  
  7.  Director:
  8.  Tommy Wirkola
  9.  
  10.  Writer:
  11.  Tommy Wirkola
  12.  
  13.  Stars:
  14.  Jeremy Renner, Gemma Arterton, Peter Stormare
  15.  
  16.  Genres:
  17.  Action | Fantasy | Horror
  18.  
  19.  Country:
  20.  Germany|USA
  21.  
  22.  Language:
  23.  English
  24.  
  25.  
  26.  
  27.  
  28.  Format                                   : AVI
  29.  Format/Info                              : Audio Video Interleave
  30.  File size                                : 910 MiB
  31.  Duration                                 : 1h 20mn
  32.  Overall bit rate                         : 1 586 Kbps
  33.  Writing library                          : VirtualDub build 32842/release
  34.  
  35.  Video
  36.  ID                                       : 0
  37.  Format                                   : MPEG-4 Visual
  38.  Format profile                           : Advanced Simple@L5
  39.  Format settings, BVOP                    : 2
  40.  Format settings, QPel                    : No
  41.  Format settings, GMC                     : No warppoints
  42.  Format settings, Matrix                  : Default (H.263)
  43.  Muxing mode                              : Packed bitstream
  44.  Codec ID                                 : XVID
  45.  Codec ID/Hint                            : XviD
  46.  Duration                                 : 1h 20mn
  47.  Bit rate                                 : 1 446 Kbps
  48.  Width                                    : 720 pixels
  49.  Height                                   : 340 pixels
  50.  Display aspect ratio                     : 2.118
  51.  Frame rate                               : 29.970 fps
  52.  Color space                              : YUV
  53.  Chroma subsampling                       : 4:2:0
  54.  Bit depth                                : 8 bits
  55.  Scan type                                : Progressive
  56.  Compression mode                         : Lossy
  57.  Bits/(Pixel*Frame)                       : 0.197
  58.  Stream size                              : 830 MiB (91%)
  59.  Writing library                          : XviD 64
  60.  
  61.  Audio
  62.  ID                                       : 1
  63.  Format                                   : MPEG Audio
  64.  Format version                           : Version 1
  65.  Format profile                           : Layer 3
  66.  Mode                                     : Joint stereo
  67.  Mode extension                           : MS Stereo
  68.  Codec ID                                 : 55
  69.  Codec ID/Hint                            : MP3
  70.  Duration                                 : 1h 20mn
  71.  Bit rate mode                            : Constant
  72.  Bit rate                                 : 128 Kbps
  73.  Channel(s)                               : 2 channels
  74.  Sampling rate                            : 44.1 KHz
  75.  Compression mode                         : Lossy
  76.  Stream size                              : 73.4 MiB (8%)
  77.  Alignment                                : Split accross interleaves
  78.  Interleave, duration                     : 33 ms (1.00 video frame)
  79.  Writing library                          : LAME3.99r
  80.  Encoding settings                        : -m j -V 4 -q 2 -lowpass 17 -b 128