Posted : 1 Year ago

  1. ##     ## #### ##     ## ########          ######  ##     ##  #######  
  2. ##     ##  ##  ##     ## ##               ##    ## ###   ### ##     ##
  3. ##     ##  ##  ##     ## ##               ##       #### #### ##     ##
  4. #########  ##  ##     ## ######   ####### ##       ## ### ##  #######  
  5. ##     ##  ##   ##   ##  ##               ##       ##     ## ##     ##
  6. ##     ##  ##    ## ##   ##               ##    ## ##     ## ##     ##
  7. ##     ## ####    ###    ########          ######  ##     ##  #######  
  8.  
  9. ###########  Thx Hive - CM8 Doing It Right The First Time  ###########
  10.  
  11.  
  12. [IMG]http://img854.imageshack.us/img854/4934/wreckitralph13.jpg[/IMG]
  13.  
  14.  
  15. Wreck.it.Ralph.2012.DVDScr.XVID.AC3.HQ.Hive-CM8
  16.  
  17.  
  18. Source: DVDSCR DVD-R (thx R)
  19.  
  20. Video.: 720x304 @bitrate 1700 2pass
  21. Audio.: English AC3 2.0 Stereo
  22. Sample: Yes, included
  23.  
  24.  
  25. IMDb..: http://www.imdb.com/title/tt1772341/
  26.  
  27.  
  28. ENCODE
  29. dvd was nice, just fixed some colours, added sharpness,
  30. and removed all visible watermarks
  31. got very nice
  32. enjoy
  33.  
  34.  
  35. General
  36. Complete name                  : Wreck.it.Ralph.2012.DVDScr.XVID.AC3.HQ.Hive-CM8.avi
  37. Format                         : AVI
  38. Format/Info                    : Audio Video Interleave
  39. File size                      : 1.39 GiB
  40. Duration                       : 1h 41mn
  41. Overall bit rate               : 1 965 Kbps
  42. Writing application            : Nandub v1.0rc2
  43. Writing library                : Nandub build 1853/release
  44.  
  45. Video
  46. ID                             : 0
  47. Format                         : MPEG-4 Visual
  48. Format profile                 : Advanced Simple@L5
  49. Format settings, BVOP          : 2
  50. Format settings, QPel          : Yes
  51. Format settings, GMC           : No warppoints
  52. Format settings, Matrix        : Default (H.263)
  53. Muxing mode                    : Packed bitstream
  54. Codec ID                       : XVID
  55. Codec ID/Hint                  : XviD
  56. Duration                       : 1h 41mn
  57. Bit rate                       : 1 698 Kbps
  58. Width                          : 720 pixels
  59. Height                         : 304 pixels
  60. Display aspect ratio           : 2.35:1
  61. Frame rate                     : 29.970 fps
  62. Color space                    : YUV
  63. Chroma subsampling             : 4:2:0
  64. Bit depth                      : 8 bits
  65. Scan type                      : Progressive
  66. Compression mode               : Lossy
  67. Bits/(Pixel*Frame)             : 0.259
  68. Stream size                    : 1.20 GiB (86%)
  69. Writing library                : XviD 1.2.1 (UTC 2008-12-04)
  70.  
  71. Audio
  72. ID                             : 1
  73. Format                         : AC-3
  74. Format/Info                    : Audio Coding 3
  75. Mode extension                 : CM (complete main)
  76. Format settings, Endianness    : Big
  77. Codec ID                       : 2000
  78. Duration                       : 1h 41mn
  79. Bit rate mode                  : Constant
  80. Bit rate                       : 256 Kbps
  81. Channel(s)                     : 2 channels
  82. Channel positions              : Front: L R
  83. Sampling rate                  : 48.0 KHz
  84. Bit depth                      : 16 bits
  85. Compression mode               : Lossy
  86. Delay relative to video        : 29ms
  87. Stream size                    : 185 MiB (13%)
  88. Alignment                      : Split accross interleaves
  89. Interleave, duration           : 33 ms (1.00 video frame)
  90. Interleave, preload duration   : 500 ms
  91.  
  92.  
  93. PLOT
  94. A video game villain wants to be a hero and sets out to fulfill his dream,
  95. but his quest brings havoc to the entire arcade where he lives.
  96.  
  97.  
  98. CAST
  99. John C. Reilly   ...    Ralph (voice)
  100. Sarah Silverman  ...    Vanellope (voice)
  101. Jack McBrayer    ...    Felix (voice)
  102. Jane Lynch       ...    Calhoun (voice)
  103.  
  104.  
  105. [img]http://img507.imageshack.us/img507/2383/wrwwrr.png[/img]
  106. [img]http://img708.imageshack.us/img708/6449/wrwwrwwrrr.png[/img]
  107. [img]http://img339.imageshack.us/img339/3600/wrwwrwwwrrrr.png[/img]
  108. [img]http://img203.imageshack.us/img203/4306/wrwwwrrr.png[/img]
  109. [img]http://img843.imageshack.us/img843/8356/89249039.png[/img]
  110. [img]http://img685.imageshack.us/img685/4547/wrwr.png[/img]
  111.  
  112.  
  113. [video=http://www.youtube.com/watch?v=btB8tb8fLYM]
  114.  
  115.  
  116. GREETZ
  117. ViSiON,SPK,SceneLovers,PRESTiGE,SANTi,3LT0N,YanKeeS,COPYxRIGHT,THC,T0XiC
  118. D2U,LKRG,ADTRG,Feel-Free,KoDeKinG,FLAWL3SS,WBZ,BHRG,26K,NOVA,MAGNET
  119. Unevano,BigVik,Rapeseed,SAFC,goldadvance,KaN1vE,Pinnz,Wayne,TED
  120. SeeN,jtr,Limey,ICONiK,4PlayHD,THEDEN-RG,eXceSs,AKS74u,HiGH
  121. Mr Hive,rkofan,and most P2P groups
  122. Great Work Guys!
  123.  
  124. LOOKING FOR ANYTHING YOU WANT TO LOOK AND SOUND BETTER
  125.  
  126. CM8@hushmail.com
  127.