Posted : 1 Year ago

  1. TiTLE: Chinese.Zodiac.2012.HDTS.NEW.XviD-DEYA
  2.  
  3.  General
  4.  Complete name                            : C:\Users\Administrator\Desktop\Chinese.Zodiac.2012.HDTS.NEW.XviD-DEYA
  5.  Format                                   : AVI
  6.  Format/Info                              : Audio Video Interleave
  7.  File size                                : 1.69 GiB
  8.  Duration                                 : 1h 53mn
  9.  Overall bit rate                         : 2 135 Kbps
  10.  
  11.  Video
  12.  ID                                       : 0
  13.  Format                                   : MPEG-4 Visual
  14.  Format profile                           : Advanced Simple@L5
  15.  Format settings, BVOP                    : 2
  16.  Format settings, QPel                    : No
  17.  Format settings, GMC                     : No warppoints
  18.  Format settings, Matrix                  : Default (H.263)
  19.  Muxing mode                              : Packed bitstream
  20.  Codec ID                                 : XVID
  21.  Codec ID/Hint                            : XviD
  22.  Duration                                 : 1h 53mn
  23.  Bit rate                                 : 1 999 Kbps
  24.  Width                                    : 688 pixels
  25.  Height                                   : 288 pixels
  26.  Display aspect ratio                     : 2.40:1
  27.  Frame rate                               : 23.976 fps
  28.  Color space                              : YUV
  29.  Chroma subsampling                       : 4:2:0
  30.  Bit depth                                : 8 bits
  31.  Scan type                                : Progressive
  32.  Compression mode                         : Lossy
  33.  Bits/(Pixel*Frame)                       : 0.421
  34.  Stream size                              : 1.58 GiB (94%)
  35.  Writing library                          : XviD 64
  36.  
  37.  Audio
  38.  ID                                       : 1
  39.  Format                                   : AC-3
  40.  Format/Info                              : Audio Coding 3
  41.  Mode extension                           : CM (complete main)
  42.  Codec ID                                 : 2000
  43.  Duration                                 : 1h 53mn
  44.  Bit rate mode                            : Constant
  45.  Bit rate                                 : 128 Kbps
  46.  Channel(s)                               : 2 channels
  47.  Channel positions                        : Front: L R
  48.  Sampling rate                            : 48.0 KHz
  49.  Bit depth                                : 16 bits
  50.  Compression mode                         : Lossy
  51.  Stream size                              : 104 MiB (6%)
  52.  Alignment                                : Aligned on interleaves
  53.  Interleave, duration                     : 64 ms (1.53 video frames)
  54.  Interleave, preload duration             : 192 ms
  55.  Title                                    : Chinese Zodiac.track_2
  56.  
  57.  SOURCE: DVDSCR DWR [thx]
  58.  
  59.  SUBTiTLES: HC ENGLiSH & CHiNESE WHEN NEEDED AND THOUGH-OUT
  60.  
  61.  NOTES: thought i wud do this one again as a different rip from
  62.  the source dropped much better Q again now .. no jumpy fightin
  63.  scenes and runs nice and smooth plus it was in a mkv container
  64.  this time and no shite RVMB lol it was tagged dvdscr but im
  65.  going with what i believe to be true nd thats a HDTS but very
  66.  clear proply best cam i seen for few years to be honest enjoy