Posted : 1 Year ago

  1. [IMG]http://i.imgur.com/ijACVV9.jpg[/IMG]
  2.  
  3. Source: 1080p.BluRay.x264-EPHEMERiD
  4.  
  5. http://www.imdb.com/title/tt2303110/
  6.  
  7. Jurassic Attack follows a group of commandos on a mission to take out terrorists who must battle for their lives against dinosaurs instead when their chopper crashes in a remote jungle.
  8.  
  9. General
  10. Complete name                            : Jurassic Attack 2013 BRRip x264 AAC-OFFLiNE.mp4
  11. Format                                   : MPEG-4
  12. Format profile                           : Base Media
  13. Codec ID                                 : isom
  14. File size                                : 1.41 GiB
  15. Duration                                 : 1h 23mn
  16. Overall bit rate mode                    : Variable
  17. Overall bit rate                         : 2 427 Kbps
  18. Encoded date                             : UTC 2013-02-06 22:19:33
  19. Tagged date                              : UTC 2013-02-06 22:19:33
  20.  
  21. Video
  22. ID                                       : 1
  23. Format                                   : AVC
  24. Format/Info                              : Advanced Video Codec
  25. Format profile                           : High@L4.1
  26. Format settings, CABAC                   : Yes
  27. Format settings, ReFrames                : 3 frames
  28. Codec ID                                 : avc1
  29. Codec ID/Info                            : Advanced Video Coding
  30. Duration                                 : 1h 23mn
  31. Bit rate mode                            : Variable
  32. Bit rate                                 : 2 069 Kbps
  33. Maximum bit rate                         : 40.0 Mbps
  34. Width                                    : 720 pixels
  35. Height                                   : 400 pixels
  36. Display aspect ratio                     : 16:9
  37. Frame rate mode                          : Constant
  38. Frame rate                               : 23.976 fps
  39. Color space                              : YUV
  40. Chroma subsampling                       : 4:2:0
  41. Bit depth                                : 8 bits
  42. Scan type                                : Progressive
  43. Bits/(Pixel*Frame)                       : 0.300
  44. Stream size                              : 1.21 GiB (85%)
  45. Writing library                          : x264 core 129 r2245 bc13772
  46.  
  47. Audio
  48. ID                                       : 2
  49. Format                                   : AAC
  50. Format/Info                              : Advanced Audio Codec
  51. Format profile                           : LC
  52. Codec ID                                 : 40
  53. Duration                                 : 1h 23mn
  54. Bit rate mode                            : Variable
  55. Bit rate                                 : 353 Kbps
  56. Maximum bit rate                         : 407 Kbps
  57. Channel(s)                               : 6 channels
  58. Channel positions                        : Front: L C R, Side: L R, LFE
  59. Sampling rate                            : 48.0 KHz
  60. Compression mode                         : Lossy
  61. Stream size                              : 212 MiB (15%)
  62. Language                                 : English
  63. Encoded date                             : UTC 2013-02-06 17:46:34
  64. Tagged date                              : UTC 2013-02-06 22:20:59
  65.  
  66. [IMG]http://i.imgur.com/KFUQnA4.png[/IMG]
  67. [IMG]http://i.imgur.com/UegM4AR.png[/IMG]
  68. [IMG]http://i.imgur.com/bD72Gof.png[/IMG]
  69. [IMG]http://i.imgur.com/T5j2yBE.png[/IMG]
  70. [IMG]http://i.imgur.com/AlgHCfG.png[/IMG]
  71.  
  72. Greets And Respect..To Those Who Have Earned IT..