Posted : 1 Year ago

  1. Format                                   : AVI
  2.  Format/Info                              : Audio Video Interleave
  3.  File size                                : 1.39 GiB
  4.  Duration                                 : 1h 26mn
  5.  Overall bit rate                         : 2 318 Kbps
  6.  Writing application                      : VirtualDubMod 1.5.10.3 | www.virtualdub-fr.org || (build 2550/release)
  7.  Writing library                          : VirtualDubMod build 2550/release
  8.  
  9.  Video
  10.  ID                                       : 0
  11.  Format                                   : MPEG-4 Visual
  12.  Format profile                           : Advanced Simple@L5
  13.  Format settings, BVOP                    : 2
  14.  Format settings, QPel                    : No
  15.  Format settings, GMC                     : No warppoints
  16.  Format settings, Matrix                  : Default (H.263)
  17.  Muxing mode                              : Packed bitstream
  18.  Codec ID                                 : XVID
  19.  Codec ID/Hint                            : XviD
  20.  Duration                                 : 1h 26mn
  21.  Bit rate                                 : 2 114 Kbps
  22.  Width                                    : 682 pixels
  23.  Height                                   : 284 pixels
  24.  Display aspect ratio                     : 2.40:1
  25.  Frame rate                               : 29.970 fps
  26.  Color space                              : YUV
  27.  Chroma subsampling                       : 4:2:0
  28.  Bit depth                                : 8 bits
  29.  Scan type                                : Progressive
  30.  Compression mode                         : Lossy
  31.  Bits/(Pixel*Frame)                       : 0.364
  32.  Stream size                              : 1.27 GiB (91%)
  33.  Writing library                          : XviD 64
  34.  
  35.  Audio
  36.  ID                                       : 1
  37.  Format                                   : AC-3
  38.  Format/Info                              : Audio Coding 3
  39.  Mode extension                           : CM (complete main)
  40.  Codec ID                                 : 2000
  41.  Duration                                 : 1h 26mn
  42.  Bit rate mode                            : Constant
  43.  Bit rate                                 : 192 Kbps
  44.  Channel(s)                               : 2 channels
  45.  Channel positions                        : Front: L R
  46.  Sampling rate                            : 48.0 KHz
  47.  Bit depth                                : 16 bits
  48.  Compression mode                         : Lossy
  49.  Stream size                              : 118 MiB (8%)
  50.  Alignment                                : Aligned on interleaves
  51.  Interleave, duration                     : 33 ms (1.00 video frame)
  52.  Interleave, preload duration             : 512 ms
  53.  
  54.  
  55.  
  56.  
  57.  
  58.  
  59.  
  60.  
  61.  
  62.  Sources: HP - Thx
  63.  
  64.  
  65.  
  66.  
  67.  
  68.  
  69.  
  70.  
  71.  
  72.  
  73.  
  74.  Plot:After the first massacre in 1974, the townspeople suspected that the Sawyer family were responsible. A vigilante mob of enraged locals surrounded the Sawyer house, burning it to the ground and killing every last member of the family. Decades later a young woman named Heather learns that she has inherited a Texas estate from her grandmother. she decides to bring her friends along on the road trip to invesitgate her inheritance. On arrival she uncovers she has inherited a mansion but is yet to uncover the terrors that lurk in the basement below it.