Posted : 1 Year ago

  1. Source: DVDR
  2.  Sample: Yes
  3.  Codec: x264
  4.  Container: MKV
  5.  Audio: 6CH @ English
  6.  
  7.  Video
  8.  ID                                       : 1
  9.  Format                                   : AVC
  10.  Format/Info                              : Advanced Video Codec
  11.  Format profile                           : High@L4.1
  12.  Format settings, CABAC                   : Yes
  13.  Format settings, ReFrames                : 3 frames
  14.  Codec ID                                 : V_MPEG4/ISO/AVC
  15.  Duration                                 : 1h 24mn
  16.  Bit rate mode                            : Variable
  17.  Bit rate                                 : 1 396 Kbps
  18.  Maximum bit rate                         : 40.0 Mbps
  19.  Width                                    : 720 pixels
  20.  Height                                   : 400 pixels
  21.  Display aspect ratio                     : 16:9
  22.  Frame rate mode                          : Constant
  23.  Frame rate                               : 23.976 fps
  24.  Color space                              : YUV
  25.  Chroma subsampling                       : 4:2:0
  26.  Bit depth                                : 8 bits
  27.  Scan type                                : Progressive
  28.  Bits/(Pixel*Frame)                       : 0.202
  29.  Stream size                              : 824 MiB (76%)
  30.  Writing library                          : x264 core 133 r2334 a3ac64b
  31.  
  32.  Audio
  33.  ID                                       : 2
  34.  Format                                   : AC-3
  35.  Format/Info                              : Audio Coding 3
  36.  Mode extension                           : CM (complete main)
  37.  Format settings, Endianness              : Big
  38.  Codec ID                                 : A_AC3
  39.  Duration                                 : 1h 24mn
  40.  Bit rate mode                            : Constant
  41.  Bit rate                                 : 384 Kbps
  42.  Channel(s)                               : 6 channels
  43.  Channel positions                        : Front: L C R, Side: L R, LFE
  44.  Sampling rate                            : 48.0 KHz
  45.  Bit depth                                : 16 bits
  46.  Compression mode                         : Lossy
  47.  Stream size                              : 232 MiB (22%)
  48.  Default                                  : Yes
  49.  Forced                                   : No