Posted : 8 Months ago

  1.                  
  2.  **Release Brought To You By TommieCook **                        
  3.  
  4.                                   **Poster **
  5.  
  6.  ******************************************************************************************************              
  7.  
  8.                      **[/color] **
  9.  
  10.  ******************************************************************************************************
  11.  
  12.  Encoder ..........: Tommie Cook                                                  
  13.  Video Codec.......: AVI.X264
  14.  Video Bitrate.....: 2500 Kbps                            
  15.  Audio Codec.......: MP3
  16.  Audio Bitrate.....: 448 Kbps/2 Channels                    
  17.  Resolution........: 720X320
  18.  Runtime...........: 1h 55min                        
  19.  Release Date......: N/A
  20.  Theatre Date......: 07 June 2013 (USA)
  21.  Language..........: English
  22.  Subtitles.........: ARB
  23.  IMDB Rating.......: 6.5/10
  24.  IMDb URL..........: http://www.imdb.com/title/tt2234155/
  25.  _______________________________________________________________________________
  26.  
  27.  [color=blue]General
  28.  Complete name                            : C:\The.Internship.2013.Cam.New.Source.X264.26K.avi
  29.  Format                                   : AVI
  30.  Format/Info                              : Audio Video Interleave
  31.  Format profile                           : OpenDML
  32.  File size                                : 2.28 GiB
  33.  Duration                                 : 1h 55mn
  34.  Overall bit rate                         : 2 835 Kbps
  35.  Writing library                          : VirtualDub build 32842/release
  36.  
  37.  
  38.  
  39.  ________________________________________________________________________________
  40.  
  41. Video
  42.  
  43.  Video
  44.  ID                                       : 0
  45.  Format                                   : AVC
  46.  Format/Info                              : Advanced Video Codec
  47.  Format profile                           : High@L4.1
  48.  Format settings, CABAC                   : Yes
  49.  Format settings, ReFrames                : 4 frames
  50.  Codec ID                                 : X264
  51.  Codec ID/Info                            : XiWave GNU GPL x264 MPEG-4
  52.  Duration                                 : 1h 55mn
  53.  Bit rate                                 : 2 500 Kbps
  54.  Width                                    : 720 pixels
  55.  Height                                   : 320 pixels
  56.  Display aspect ratio                     : 2.25:1
  57.  Frame rate                               : 29.970 fps
  58.  Color space                              : YUV
  59.  Chroma subsampling                       : 4:2:0
  60.  Bit depth                                : 8 bits
  61.  Scan type                                : Progressive
  62.  Bits/(Pixel*Frame)                       : 0.362
  63.  Stream size                              : 2.01 GiB (88%)
  64.  Writing library                          : x264 core 125 r2200bm 999b753
  65.  Encoding settings                        : cabac=1 / ref=3 / deblock=1:-2:-2 / analyse=0x3:0x113 / me=hex / subme=7 / psy=1 / psy_rd=1.00:0.25 / mixed_ref=1 / me_range=16 / chroma_me=1 / trellis=1 / 8x8dct=1 / cqm=0 / deadzone=6,6 / fast_pskip=1 / chroma_qp_offset=-4 / threads=9 / lookahead_threads=1 / sliced_threads=0 / nr=0 / decimate=0 / interlaced=0 / bluray_compat=0 / constrained_intra=0 / bframes=3 / b_pyramid=2 / b_adapt=1 / b_bias=0 / direct=1 / weightb=1 / open_gop=0 / weightp=2 / keyint=250 / keyint_min=25 / scenecut=40 / intra_refresh=0 / rc_lookahead=40 / rc=abr / mbtree=1 / bitrate=2500 / ratetol=1.0 / qcomp=0.80 / qpmin=0 / qpmax=69 / qpstep=4 / ip_ratio=1.10 / aq=1:0.50
  66.  
  67.  _________________________________________________________________________________
  68.  
  69. Audio
  70.  
  71.  Audio
  72.  ID                                       : 1
  73.  Format                                   : MPEG Audio
  74.  Format version                           : Version 1
  75.  Format profile                           : Layer 3
  76.  Mode                                     : Joint stereo
  77.  Codec ID                                 : 55
  78.  Codec ID/Hint                            : MP3
  79.  Duration                                 : 1h 55mn
  80.  Bit rate mode                            : Constant
  81.  Bit rate                                 : 320 Kbps
  82.  Channel(s)                               : 2 channels
  83.  Sampling rate                            : 48.0 KHz
  84.  Compression mode                         : Lossy
  85.  Stream size                              : 264 MiB (11%)
  86.  Alignment                                : Split accross interleaves
  87.  Interleave, duration                     : 33 ms (1.00 video frame)
  88.  Interleave, preload duration             : 500 ms
  89.  
  90.  
  91.  _________________________________________________________________________________
  92.  
  93.  
  94. SOURCES:
  95.  
  96. VIDEO:  Thanks Bro
  97. AUDIO:  Thanks Bro
  98.  
  99.  _________________________________________________________________________________
  100.  
  101. Plot:
  102.  Two salesmen whose careers have been torpedoed by the digital age find their way into a coveted internship at Google, where they must compete with a group of young, tech-savvy geniuses for a shot at employment.
  103.  __________________________________________________________________________
  104.  
  105.  
  106. Screens:
  107.  
  108.  
  109.  
  110.  
  111.  [
  112.  
  113.  
  114.  _________________________________________________________________________________
  115.  
  116.  
  117. Youtube Trailer:
  118.  
  119.  [http://www.youtube.com/watch?v=a8DjuGlVknQ]
  120.  
  121.  _________________________________________________________________________________
  122.  
  123.  
  124. Sample Included
  125.  yes 1 samples
  126.  _________________________________________________________________________________
  127.  
  128.  
  129. Notes:
  130.  
  131.  Was passed this source from a friend, thanks.
  132.  did the reg. No need to go into details.
  133.  
  134.  
  135.  Audio:
  136.  Did a few tweaks.
  137.  
  138.  MOVIE IS VERY WATCHABLE.
  139.  
  140. Notes:
  141.  So Enjoy another quality release from TommieCook!
  142.  
  143.  __________________________________________________________________________________
  144.  
  145. Greetz:
  146.  
  147.  Boobyblue,LiFT,ADTRG,INSPiRAL, CrEwSaDe,HOPE,KillerHz,Bigguy,Inspiral,LEGiON,BHRG,BBnRG,CRYS.TKS69 ,Dirty Mary,CookieBoy