Posted : 1 Year ago

  1. General
  2.  Complete name : Life of Pi 2012 DVDSCR.m4v
  3.  Format : MPEG-4
  4.  Format profile : Base Media / Version 2
  5.  Codec ID : mp42
  6.  File size : 1.25 GiB
  7.  Duration : 2h 6mn
  8.  Overall bit rate mode : Variable
  9.  Overall bit rate : 1 405 Kbps
  10.  Encoded date : UTC 2012-12-28 07:42:54
  11.  Tagged date : UTC 2012-12-28 08:06:09
  12.  Writing application : HandBrake 0.9.8 2012071800
  13.  
  14.  Video
  15.  ID : 1
  16.  Format : AVC
  17.  Format/Info : Advanced Video Codec
  18.  Format profile : Main@L3.0
  19.  Format settings, CABAC : Yes
  20.  Format settings, ReFrames : 4 frames
  21.  Codec ID : avc1
  22.  Codec ID/Info : Advanced Video Coding
  23.  Duration : 2h 6mn
  24.  Bit rate mode : Variable
  25.  Bit rate : 1 234 Kbps
  26.  Width : 720 pixels
  27.  Height : 400 pixels
  28.  Display aspect ratio : 16:9
  29.  Frame rate mode : Variable
  30.  Frame rate : 23.976 fps
  31.  Minimum frame rate : 19.965 fps
  32.  Maximum frame rate : 29.970 fps
  33.  Color space : YUV
  34.  Chroma subsampling : 4:2:0
  35.  Bit depth : 8 bits
  36.  Scan type : Progressive
  37.  Bits/(Pixel*Frame) : 0.179
  38.  Stream size : 1.09 GiB (88%)
  39.  Writing library : x264 core 120
  40.  Encoding settings : cabac=1 / ref=1 / deblock=1:0:0 / analyse=0x1:0x111 / me=hex / subme=2 / psy=1 / psy_rd=1.00:0.00 / mixed_ref=0 / me_range=16 / chroma_me=1 / trellis=0 / 8x8dct=0 / cqm=0 / deadzone=21,11 / fast_pskip=1 / chroma_qp_offset=0 / threads=6 / sliced_threads=0 / nr=0 / decimate=1 / interlaced=0 / bluray_compat=0 / constrained_intra=0 / bframes=3 / b_pyramid=2 / b_adapt=1 / b_bias=0 / direct=1 / weightb=1 / open_gop=0 / weightp=1 / keyint=240 / keyint_min=24 / scenecut=40 / intra_refresh=0 / rc_lookahead=10 / rc=crf / mbtree=1 / crf=20.0 / qcomp=0.60 / qpmin=3 / qpmax=69 / qpstep=4 / ip_ratio=1.40 / aq=1:1.00
  41.  Encoded date : UTC 2012-12-28 07:42:54
  42.  Tagged date : UTC 2012-12-28 08:06:09
  43.  Color primaries : BT.601-6 525, BT.1358 525, BT.1700 NTSC, SMPTE 170M
  44.  Transfer characteristics : BT.709-5, BT.1361
  45.  Matrix coefficients : BT.601-6 525, BT.1358 525, BT.1700 NTSC, SMPTE 170M
  46.  
  47.  Audio
  48.  ID : 2
  49.  Format : AAC
  50.  Format/Info : Advanced Audio Codec
  51.  Format profile : LC
  52.  Codec ID : 40
  53.  Duration : 2h 6mn
  54.  Bit rate mode : Variable
  55.  Bit rate : 164 Kbps
  56.  Maximum bit rate : 255 Kbps
  57.  Channel(s) : 2 channels
  58.  Channel positions : Front: L R
  59.  Sampling rate : 48.0 KHz
  60.  Compression mode : Lossy
  61.  Stream size : 149 MiB (12%)
  62.  Language : English
  63.  Encoded date : UTC 2012-12-28 07:42:54
  64.  Tagged date : UTC 2012-12-28 08:06:09
  65.  
  66.  Text
  67.  ID : 3
  68.  Format : Apple text
  69.  Codec ID : text
  70.  Duration : 2h 6mn
  71.  Bit rate mode : Constant
  72.  Bit rate : 0
  73.  Stream size : 312 Bytes (0%)
  74.  Encoded date : UTC 2012-12-28 07:42:54
  75.  Tagged date : UTC 2012-12-28 08:06:09