Posted : 5 Months ago

  1. [mediainfo]
  2. Video
  3. ID                                       : 1
  4. Format                                   : AVC
  5. Format/Info                              : Advanced Video Codec
  6. Format profile                           : High@L4.1
  7. Format settings, CABAC                   : Yes
  8. Format settings, ReFrames                : 2 frames
  9. Codec ID                                 : V_MPEG4/ISO/AVC
  10. Duration                                 : 1h 37mn
  11. Nominal bit rate                         : 15.5 Mbps
  12. Width                                    : 1 920 pixels
  13. Height                                   : 1 080 pixels
  14. Display aspect ratio                     : 16:9
  15. Frame rate mode                          : Constant
  16. Frame rate                               : 23.976 (24000/1001) fps
  17. Color space                              : YUV
  18. Chroma subsampling                       : 4:2:0
  19. Bit depth                                : 8 bits
  20. Scan type                                : Progressive
  21. Bits/(Pixel*Frame)                       : 0.312
  22. Title                                    : The.Angry.Birds.Movie.2016.1080p.3D.BluRay.Half-SBS.x264. >>
  23. TS-HD.MA.7.1-RARBG
  24. Writing library                          : x264 core 142
  25. Encoding settings                        : cabac=1 / ref=1 / deblock=1:-1:-1 / analyse=0x3:0 / me=hex >>
  26. / subme=5 / psy=0 / mixed_ref=0 / me_range=16 / chroma_me=1 / trellis=0 / 8x8dct=1 / cqm=0 / >>
  27. deadzone=21,11 / fast_pskip=0 / chroma_qp_offset=0 / threads=8 / lookahead_threads=2 / sliced_threads=0 >>
  28. / nr=0 / decimate=1 / interlaced=0 / bluray_compat=0 / constrained_intra=0 / bframes=2 / b_pyramid=0 >>
  29. / b_adapt=1 / b_bias=0 / direct=1 / weightb=0 / open_gop=0 / weightp=0 / keyint=24 / keyint_min=13 / >>
  30. scenecut=40 / intra_refresh=0 / rc=abr / mbtree=0 / bitrate=15500 / ratetol=1.0 / qcomp=0.60 / qpmin=0 >>
  31. / qpmax=69 / qpstep=4 / ip_ratio=1.40 / pb_ratio=1.30 / aq=1:1.00
  32. Language                                 : English
  33. Default                                  : Yes
  34. Forced                                   : No
  35. Color range                              : Limited
  36. Color primaries                          : BT.709
  37. Transfer characteristics                 : BT.709
  38. Matrix coefficients                      : BT.709
  39.  
  40. Audio #1
  41. ID                                       : 2
  42. Format                                   : DTS
  43. Format/Info                              : Digital Theater Systems
  44. Format profile                           : MA / Core
  45. Mode                                     : 16
  46. Format settings, Endianness              : Big
  47. Codec ID                                 : A_DTS
  48. Duration                                 : 1h 37mn
  49. Bit rate mode                            : Variable / Constant
  50. Bit rate                                 : Unknown / 1 509 Kbps
  51. Channel(s)                               : 8 channels / 6 channels
  52. Channel positions                        : Front: L C R, Side: L R, Back: L R, LFE / Front: L C R, Side: >>
  53. L R, LFE
  54. Sampling rate                            : 48.0 KHz
  55. Frame rate                               : 93.750 fps (512 spf)
  56. Bit depth                                : 16 bits
  57. Compression mode                         : Lossless / Lossy
  58. Title                                    : The.Angry.Birds.Movie.2016.1080p.3D.BluRay.Half-SBS.x264. >>
  59. TS-HD.MA.7.1-RARBG
  60. Language                                 : English
  61. Default                                  : Yes
  62. Forced                                   : No
  63.  
  64. Audio #2
  65. ID                                       : 3
  66. Format                                   : DTS
  67. Format/Info                              : Digital Theater Systems
  68. Mode                                     : 16
  69. Format settings, Endianness              : Big
  70. Codec ID                                 : A_DTS
  71. Duration                                 : 1h 37mn
  72. Bit rate mode                            : Constant
  73. Bit rate                                 : 1 509 Kbps
  74. Channel(s)                               : 6 channels
  75. Channel positions                        : Front: L C R, Side: L R, LFE
  76. Sampling rate                            : 48.0 KHz
  77. Frame rate                               : 93.750 fps (512 spf)
  78. Bit depth                                : 16 bits
  79. Compression mode                         : Lossy
  80. Stream size                              : 1.02 GiB (5%)
  81. Title                                    : The.Angry.Birds.Movie.2016.1080p.3D.BluRay.Half-SBS.x264. >>
  82. TS-HD.MA.7.1-RARBG
  83. Language                                 : English
  84. Default                                  : No
  85. Forced                                   : No
  86.  
  87. Audio #3
  88. ID                                       : 4
  89. Format                                   : AC-3
  90. Format/Info                              : Audio Coding 3
  91. Mode extension                           : CM (complete main)
  92. Format settings, Endianness              : Big
  93. Codec ID                                 : A_AC3
  94. Duration                                 : 1h 37mn
  95. Bit rate mode                            : Constant
  96. Bit rate                                 : 640 Kbps
  97. Channel(s)                               : 6 channels
  98. Channel positions                        : Front: L C R, Side: L R, LFE
  99. Sampling rate                            : 48.0 KHz
  100. Frame rate                               : 31.250 fps (1536 spf)
  101. Compression mode                         : Lossy
  102. Stream size                              : 445 MiB (2%)
  103. Title                                    : The.Angry.Birds.Movie.2016.1080p.3D.BluRay.Half-SBS.x264. >>
  104. TS-HD.MA.7.1-RARBG
  105. Language                                 : English
  106. Default                                  : No
  107. Forced                                   : No
  108.  
  109. Audio #4
  110. ID                                       : 5
  111. Format                                   : AC-3
  112. Format/Info                              : Audio Coding 3
  113. Mode extension                           : CM (complete main)
  114. Format settings, Endianness              : Big
  115. Codec ID                                 : A_AC3
  116. Duration                                 : 1h 37mn
  117. Bit rate mode                            : Constant
  118. Bit rate                                 : 640 Kbps
  119. Channel(s)                               : 6 channels
  120. Channel positions                        : Front: L C R, Side: L R, LFE
  121. Sampling rate                            : 48.0 KHz
  122. Frame rate                               : 31.250 fps (1536 spf)
  123. Compression mode                         : Lossy
  124. Stream size                              : 445 MiB (2%)
  125. Title                                    : The.Angry.Birds.Movie.2016.1080p.3D.BluRay.Half-SBS.x264. >>
  126. TS-HD.MA.7.1-RARBG
  127. Language                                 : Chinese
  128. Default                                  : No
  129. Forced                                   : No
  130.  
  131. Audio #5
  132. ID                                       : 6
  133. Format                                   : AC-3
  134. Format/Info                              : Audio Coding 3
  135. Mode extension                           : CM (complete main)
  136. Format settings, Endianness              : Big
  137. Codec ID                                 : A_AC3
  138. Duration                                 : 1h 37mn
  139. Bit rate mode                            : Constant
  140. Bit rate                                 : 640 Kbps
  141. Channel(s)                               : 6 channels
  142. Channel positions                        : Front: L C R, Side: L R, LFE
  143. Sampling rate                            : 48.0 KHz
  144. Frame rate                               : 31.250 fps (1536 spf)
  145. Compression mode                         : Lossy
  146. Stream size                              : 445 MiB (2%)
  147. Title                                    : The.Angry.Birds.Movie.2016.1080p.3D.BluRay.Half-SBS.x264. >>
  148. TS-HD.MA.7.1-RARBG
  149. Language                                 : Chinese
  150. Default                                  : No
  151. Forced                                   : No
  152.  
  153. Audio #6
  154. ID                                       : 7
  155. Format                                   : AC-3
  156. Format/Info                              : Audio Coding 3
  157. Mode extension                           : CM (complete main)
  158. Format settings, Endianness              : Big
  159. Codec ID                                 : A_AC3
  160. Duration                                 : 1h 37mn
  161. Bit rate mode                            : Constant
  162. Bit rate                                 : 640 Kbps
  163. Channel(s)                               : 6 channels
  164. Channel positions                        : Front: L C R, Side: L R, LFE
  165. Sampling rate                            : 48.0 KHz
  166. Frame rate                               : 31.250 fps (1536 spf)
  167. Compression mode                         : Lossy
  168. Stream size                              : 445 MiB (2%)
  169. Title                                    : The.Angry.Birds.Movie.2016.1080p.3D.BluRay.Half-SBS.x264. >>
  170. TS-HD.MA.7.1-RARBG
  171. Language                                 : French
  172. Default                                  : No
  173. Forced                                   : No
  174.  
  175. Audio #7
  176. ID                                       : 8
  177. Format                                   : AC-3
  178. Format/Info                              : Audio Coding 3
  179. Mode extension                           : CM (complete main)
  180. Format settings, Endianness              : Big
  181. Codec ID                                 : A_AC3
  182. Duration                                 : 1h 37mn
  183. Bit rate mode                            : Constant
  184. Bit rate                                 : 640 Kbps
  185. Channel(s)                               : 6 channels
  186. Channel positions                        : Front: L C R, Side: L R, LFE
  187. Sampling rate                            : 48.0 KHz
  188. Frame rate                               : 31.250 fps (1536 spf)
  189. Compression mode                         : Lossy
  190. Stream size                              : 445 MiB (2%)
  191. Title                                    : The.Angry.Birds.Movie.2016.1080p.3D.BluRay.Half-SBS.x264. >>
  192. TS-HD.MA.7.1-RARBG
  193. Language                                 : Korean
  194. Default                                  : No
  195. Forced                                   : No
  196.  
  197. Audio #8
  198. ID                                       : 9
  199. Format                                   : DTS
  200. Format/Info                              : Digital Theater Systems
  201. Format profile                           : MA / Core
  202. Mode                                     : 16
  203. Format settings, Endianness              : Big
  204. Codec ID                                 : A_DTS
  205. Duration                                 : 1h 37mn
  206. Bit rate mode                            : Variable / Constant
  207. Bit rate                                 : Unknown / 1 509 Kbps
  208. Channel(s)                               : 6 channels
  209. Channel positions                        : Front: L C R, Side: L R, LFE
  210. Sampling rate                            : 48.0 KHz
  211. Frame rate                               : 93.750 fps (512 spf)
  212. Bit depth                                : 16 bits
  213. Compression mode                         : Lossless / Lossy
  214. Title                                    : The.Angry.Birds.Movie.2016.1080p.3D.BluRay.Half-SBS.x264. >>
  215. TS-HD.MA.7.1-RARBG
  216. Language                                 : Portuguese
  217. Default                                  : No
  218. Forced                                   : No
  219.  
  220. Audio #9
  221. ID                                       : 10
  222. Format                                   : DTS
  223. Format/Info                              : Digital Theater Systems
  224. Mode                                     : 16
  225. Format settings, Endianness              : Big
  226. Codec ID                                 : A_DTS
  227. Duration                                 : 1h 37mn
  228. Bit rate mode                            : Constant
  229. Bit rate                                 : 1 509 Kbps
  230. Channel(s)                               : 6 channels
  231. Channel positions                        : Front: L C R, Side: L R, LFE
  232. Sampling rate                            : 48.0 KHz
  233. Frame rate                               : 93.750 fps (512 spf)
  234. Bit depth                                : 16 bits
  235. Compression mode                         : Lossy
  236. Stream size                              : 1.02 GiB (5%)
  237. Title                                    : The.Angry.Birds.Movie.2016.1080p.3D.BluRay.Half-SBS.x264. >>
  238. TS-HD.MA.7.1-RARBG
  239. Language                                 : Portuguese
  240. Default                                  : No
  241. Forced                                   : No
  242.  
  243. Audio #10
  244. ID                                       : 11
  245. Format                                   : AC-3
  246. Format/Info                              : Audio Coding 3
  247. Mode extension                           : CM (complete main)
  248. Format settings, Endianness              : Big
  249. Codec ID                                 : A_AC3
  250. Duration                                 : 1h 37mn
  251. Bit rate mode                            : Constant
  252. Bit rate                                 : 640 Kbps
  253. Channel(s)                               : 6 channels
  254. Channel positions                        : Front: L C R, Side: L R, LFE
  255. Sampling rate                            : 48.0 KHz
  256. Frame rate                               : 31.250 fps (1536 spf)
  257. Compression mode                         : Lossy
  258. Stream size                              : 445 MiB (2%)
  259. Title                                    : The.Angry.Birds.Movie.2016.1080p.3D.BluRay.Half-SBS.x264. >>
  260. TS-HD.MA.7.1-RARBG
  261. Language                                 : Spanish
  262. Default                                  : No
  263. Forced                                   : No
  264.  
  265. Audio #11
  266. ID                                       : 12
  267. Format                                   : AC-3
  268. Format/Info                              : Audio Coding 3
  269. Mode extension                           : CM (complete main)
  270. Format settings, Endianness              : Big
  271. Codec ID                                 : A_AC3
  272. Duration                                 : 1h 37mn
  273. Bit rate mode                            : Constant
  274. Bit rate                                 : 640 Kbps
  275. Channel(s)                               : 6 channels
  276. Channel positions                        : Front: L C R, Side: L R, LFE
  277. Sampling rate                            : 48.0 KHz
  278. Frame rate                               : 31.250 fps (1536 spf)
  279. Compression mode                         : Lossy
  280. Stream size                              : 445 MiB (2%)
  281. Title                                    : The.Angry.Birds.Movie.2016.1080p.3D.BluRay.Half-SBS.x264. >>
  282. TS-HD.MA.7.1-RARBG
  283. Language                                 : Thai
  284. Default                                  : No
  285. Forced                                   : No
  286.  
  287. Audio #12
  288. ID                                       : 13
  289. Format                                   : AC-3
  290. Format/Info                              : Audio Coding 3
  291. Mode extension                           : CM (complete main)
  292. Format settings, Endianness              : Big
  293. Codec ID                                 : A_AC3
  294. Duration                                 : 1h 37mn
  295. Bit rate mode                            : Constant
  296. Bit rate                                 : 640 Kbps
  297. Channel(s)                               : 6 channels
  298. Channel positions                        : Front: L C R, Side: L R, LFE
  299. Sampling rate                            : 48.0 KHz
  300. Frame rate                               : 31.250 fps (1536 spf)
  301. Compression mode                         : Lossy
  302. Stream size                              : 445 MiB (2%)
  303. Title                                    : The.Angry.Birds.Movie.2016.1080p.3D.BluRay.Half-SBS.x264. >>
  304. TS-HD.MA.7.1-RARBG
  305. Language                                 : Vietnamese
  306. Default                                  : No
  307. Forced                                   : No
  308.  
  309. Audio #13
  310. ID                                       : 14
  311. Format                                   : AC-3
  312. Format/Info                              : Audio Coding 3
  313. Mode extension                           : CM (complete main)
  314. Format settings, Endianness              : Big
  315. Codec ID                                 : A_AC3
  316. Duration                                 : 1h 37mn
  317. Bit rate mode                            : Constant
  318. Bit rate                                 : 640 Kbps
  319. Channel(s)                               : 6 channels
  320. Channel positions                        : Front: L C R, Side: L R, LFE
  321. Sampling rate                            : 48.0 KHz
  322. Frame rate                               : 31.250 fps (1536 spf)
  323. Compression mode                         : Lossy
  324. Stream size                              : 445 MiB (2%)
  325. Title                                    : The.Angry.Birds.Movie.2016.1080p.3D.BluRay.Half-SBS.x264. >>
  326. TS-HD.MA.7.1-RARBG
  327. Language                                 : Chinese
  328. Default                                  : No
  329. Forced                                   : No
  330.  
  331. Text #1
  332. ID                                       : 15
  333. Format                                   : PGS
  334. Muxing mode                              : zlib
  335. Codec ID                                 : S_HDMV/PGS
  336. Codec ID/Info                            : Picture based subtitle format used on BDs/HD-DVDs
  337. Title                                    : English-PGS
  338. Language                                 : English
  339. Default                                  : No
  340. Forced                                   : No
  341.  
  342. Text #2
  343. ID                                       : 16
  344. Format                                   : PGS
  345. Muxing mode                              : zlib
  346. Codec ID                                 : S_HDMV/PGS
  347. Codec ID/Info                            : Picture based subtitle format used on BDs/HD-DVDs
  348. Title                                    : English-SDH-PGS
  349. Language                                 : English
  350. Default                                  : No
  351. Forced                                   : No
  352.  
  353. Text #3
  354. ID                                       : 17
  355. Format                                   : PGS
  356. Muxing mode                              : zlib
  357. Codec ID                                 : S_HDMV/PGS
  358. Codec ID/Info                            : Picture based subtitle format used on BDs/HD-DVDs
  359. Title                                    : Chinese-PGS
  360. Language                                 : Chinese
  361. Default                                  : No
  362. Forced                                   : No
  363.  
  364. Text #4
  365. ID                                       : 18
  366. Format                                   : PGS
  367. Muxing mode                              : zlib
  368. Codec ID                                 : S_HDMV/PGS
  369. Codec ID/Info                            : Picture based subtitle format used on BDs/HD-DVDs
  370. Title                                    : Chinese-PGS
  371. Language                                 : Chinese
  372. Default                                  : No
  373. Forced                                   : No
  374.  
  375. Text #5
  376. ID                                       : 19
  377. Format                                   : PGS
  378. Muxing mode                              : zlib
  379. Codec ID                                 : S_HDMV/PGS
  380. Codec ID/Info                            : Picture based subtitle format used on BDs/HD-DVDs
  381. Title                                    : Chinese-PGS
  382. Language                                 : Chinese
  383. Default                                  : No
  384. Forced                                   : No
  385.  
  386. Text #6
  387. ID                                       : 20
  388. Format                                   : PGS
  389. Muxing mode                              : zlib
  390. Codec ID                                 : S_HDMV/PGS
  391. Codec ID/Info                            : Picture based subtitle format used on BDs/HD-DVDs
  392. Title                                    : French-PGS
  393. Language                                 : French
  394. Default                                  : No
  395. Forced                                   : No
  396.  
  397. Text #7
  398. ID                                       : 21
  399. Format                                   : PGS
  400. Muxing mode                              : zlib
  401. Codec ID                                 : S_HDMV/PGS
  402. Codec ID/Info                            : Picture based subtitle format used on BDs/HD-DVDs
  403. Title                                    : Indoanesian-PGS
  404. Language                                 : Indonesian
  405. Default                                  : No
  406. Forced                                   : No
  407.  
  408. Text #8
  409. ID                                       : 22
  410. Format                                   : PGS
  411. Muxing mode                              : zlib
  412. Codec ID                                 : S_HDMV/PGS
  413. Codec ID/Info                            : Picture based subtitle format used on BDs/HD-DVDs
  414. Title                                    : Korean-PGS
  415. Language                                 : Korean
  416. Default                                  : No
  417. Forced                                   : No
  418.  
  419. Text #9
  420. ID                                       : 23
  421. Format                                   : PGS
  422. Muxing mode                              : zlib
  423. Codec ID                                 : S_HDMV/PGS
  424. Codec ID/Info                            : Picture based subtitle format used on BDs/HD-DVDs
  425. Title                                    : Portuguese-PGS
  426. Language                                 : Portuguese
  427. Default                                  : No
  428. Forced                                   : No
  429.  
  430. Text #10
  431. ID                                       : 24
  432. Format                                   : PGS
  433. Muxing mode                              : zlib
  434. Codec ID                                 : S_HDMV/PGS
  435. Codec ID/Info                            : Picture based subtitle format used on BDs/HD-DVDs
  436. Title                                    : Spanish-PGS
  437. Language                                 : Spanish
  438. Default                                  : No
  439. Forced                                   : No
  440.  
  441. Text #11
  442. ID                                       : 25
  443. Format                                   : PGS
  444. Muxing mode                              : zlib
  445. Codec ID                                 : S_HDMV/PGS
  446. Codec ID/Info                            : Picture based subtitle format used on BDs/HD-DVDs
  447. Title                                    : Thai-PGS
  448. Language                                 : Thai
  449. Default                                  : No
  450. Forced                                   : No
  451.  
  452. Text #12
  453. ID                                       : 26
  454. Format                                   : PGS
  455. Muxing mode                              : zlib
  456. Codec ID                                 : S_HDMV/PGS
  457. Codec ID/Info                            : Picture based subtitle format used on BDs/HD-DVDs
  458. Title                                    : Vietnamese-PGS
  459. Language                                 : Vietnamese
  460. Default                                  : No
  461. Forced                                   : No
  462.  
  463. Menu