Posted : 1 Year ago

  1. Complete name                : G:\Paulovboro\Uploader-files\Robot.And.Frank.2012.XviD.avi
  2.  Format                                   : AVI
  3.  Format/Info                              : Audio Video Interleave
  4.  File size                                : 700 MiB
  5.  Duration                                 : 1h 23mn
  6.  Overall bit rate                         : 1 177 Kbps
  7.  
  8. Video
  9.  ID                                       : 0
  10.  Format                                   : MPEG-4 Visual
  11.  Format profile                           : Simple@L3
  12.  Format settings, BVOP                    : 1
  13.  Format settings, QPel                    : No
  14.  Format settings, GMC                     : No warppoints
  15.  Format settings, Matrix                  : Default (H.263)
  16.  Muxing mode                              : Packed bitstream
  17.  Codec ID                                 : DX50
  18.  Codec ID/Hint                            : DivX 5
  19.  Duration                                 : 1h 23mn
  20.  Bit rate                                 : 1 038 Kbps
  21.  Width                                    : 704 pixels
  22.  Height                                   : 352 pixels
  23.  Display aspect ratio                     : 2.000
  24.  Frame rate                               : 25.000 fps
  25.  Color space                              : YUV
  26.  Chroma subsampling                       : 4:2:0
  27.  Bit depth                                : 8 bits
  28.  Scan type                                : Progressive
  29.  Compression mode                         : Lossy
  30.  Bits/(Pixel*Frame)                       : 0.168
  31.  Stream size                              : 617 MiB (88%)
  32.  Writing library                          : XviD 1.1.2 (UTC 2006-11-01)
  33.  
  34. Audio
  35.  ID                                       : 1
  36.  Format                                   : MPEG Audio
  37.  Format version                           : Version 1
  38.  Format profile                           : Layer 3
  39.  Mode                                     : Joint stereo
  40.  Mode extension                           : MS Stereo
  41.  Codec ID                                 : 55
  42.  Codec ID/Hint                            : MP3
  43.  Duration                                 : 1h 23mn
  44.  Bit rate mode                            : Constant
  45.  Bit rate                                 : 112 Kbps
  46.  Channel(s)                               : 2 channels
  47.  Sampling rate                            : 44.1 KHz
  48.  Compression mode                         : Lossy
  49.  Delay relative to video                  : 3ms
  50.  Stream size                              : 66.6 MiB (10%)
  51.  Alignment                                : Split accross interleaves
  52.  Interleave, duration                     : 26 ms (0.65 video frame)
  53.  Interleave, preload duration             : 52 ms