Posted : 1 Year ago

  1. Source: d.dvdrip.1400mb
  2.  
  3. http://www.imdb.com/title/tt1856053/
  4.  
  5.  Set right before Christmas, Niko the reindeer must deal with his mom getting re-married and his being tasked with looking after his little stepbrother.
  6.  
  7.  General
  8.  Complete name                            : Niko 2 2012 R5 x264 AAC-BiGKATS.mp4
  9.  Format                                   : MPEG-4
  10.  Format profile                           : Base Media
  11.  Codec ID                                 : isom
  12.  File size                                : 700 MiB
  13.  Duration                                 : 1h 13mn
  14.  Overall bit rate mode                    : Variable
  15.  Overall bit rate                         : 1 339 Kbps
  16.  Encoded date                             : UTC 2013-01-18 15:48:50
  17.  Tagged date                              : UTC 2013-01-18 15:48:50
  18.  
  19.  Video
  20.  ID                                       : 1
  21.  Format                                   : AVC
  22.  Format/Info                              : Advanced Video Codec
  23.  Format profile                           : High@L4.1
  24.  Format settings, CABAC                   : Yes
  25.  Format settings, ReFrames                : 3 frames
  26.  Codec ID                                 : avc1
  27.  Codec ID/Info                            : Advanced Video Coding
  28.  Duration                                 : 1h 13mn
  29.  Bit rate mode                            : Variable
  30.  Bit rate                                 : 1 208 Kbps
  31.  Maximum bit rate                         : 40.0 Mbps
  32.  Width                                    : 720 pixels
  33.  Height                                   : 384 pixels
  34.  Display aspect ratio                     : 1.85:1
  35.  Frame rate mode                          : Constant
  36.  Frame rate                               : 25.000 fps
  37.  Color space                              : YUV
  38.  Chroma subsampling                       : 4:2:0
  39.  Bit depth                                : 8 bits
  40.  Scan type                                : Progressive
  41.  Bits/(Pixel*Frame)                       : 0.175
  42.  Stream size                              : 631 MiB (90%)
  43.  Writing library                          : x264 core 129 r2245 bc13772
  44.  
  45.  Audio
  46.  ID                                       : 2
  47.  Format                                   : AAC
  48.  Format/Info                              : Advanced Audio Codec
  49.  Format profile                           : LC
  50.  Codec ID                                 : 40
  51.  Duration                                 : 1h 13mn
  52.  Bit rate mode                            : Variable
  53.  Bit rate                                 : 128 Kbps
  54.  Maximum bit rate                         : 144 Kbps
  55.  Channel(s)                               : 6 channels
  56.  Channel positions                        : Front: L C R, Side: L R, LFE
  57.  Sampling rate                            : 48.0 KHz
  58.  Compression mode                         : Lossy
  59.  Stream size                              : 66.6 MiB (10%)
  60.  Language                                 : English
  61.  Encoded date                             : UTC 2013-01-18 15:06:29
  62.  Tagged date                              : UTC 2013-01-18 15:49:18
  63.  
  64.  
  65.  
  66.  
  67.  
  68.  
  69.  
  70.  
  71.  Greets: Stonehill, BiGKATS FAM, MATiNE, DQ1, and Not You.
  72.  
  73.  If you have what it takes to be part of an awesome team, let us know! We are always looking for good reliable sources..cams, audio etc. contact us at Bigkats2013@gmail.com
  74.  
  75.  "Don't Talk About It Be About It"