Posted : 5 Months ago

  1. Video
  2. ID                                       : 2
  3. Format                                   : AVC
  4. Format/Info                              : Advanced Video Codec
  5. Format profile                           : High@L4.1
  6. Format settings, CABAC                   : Yes
  7. Format settings, ReFrames                : 5 frames
  8. Codec ID                                 : V_MPEG4/ISO/AVC
  9. Duration                                 : 1h 24mn
  10. Bit rate                                 : 3 310 Kbps
  11. Width                                    : 1 280 pixels
  12. Height                                   : 720 pixels
  13. Display aspect ratio                     : 16:9
  14. Frame rate mode                          : Constant
  15. Frame rate                               : 23.976 (24000/1001) fps
  16. Color space                              : YUV
  17. Chroma subsampling                       : 4:2:0
  18. Bit depth                                : 8 bits
  19. Scan type                                : Progressive
  20. Bits/(Pixel*Frame)                       : 0.150
  21. Stream size                              : 1.96 GiB (88%)
  22. Writing library                          : x264 core 148 r2705 3f5ed56
  23. Encoding settings                        : cabac=1 / ref=5 / deblock=1:-3:-3 / analyse=0x3:0x113 / me=umh / subme=8 / psy=1 / psy_rd=1.00:0.15 / mixed_ref=1 / me_range=16 / chroma_me=1 / trellis=1 / 8x8dct=1 / cqm=0 / deadzone=21,11 / fast_pskip=1 / chroma_qp_offset=-3 / threads=9 / lookahead_threads=1 / sliced_threads=0 / nr=0 / decimate=1 / interlaced=0 / bluray_compat=0 / constrained_intra=0 / bframes=3 / b_pyramid=2 / b_adapt=2 / b_bias=0 / direct=3 / weightb=1 / open_gop=0 / weightp=2 / keyint=240 / keyint_min=23 / scenecut=40 / intra_refresh=0 / rc_lookahead=50 / rc=crf / mbtree=1 / crf=18.0 / qcomp=0.60 / qpmin=0 / qpmax=69 / qpstep=4 / vbv_maxrate=62500 / vbv_bufsize=78125 / crf_max=0.0 / nal_hrd=none / filler=0 / ip_ratio=1.40 / aq=1:0.60
  24. Default                                  : Yes
  25. Forced                                   : No
  26. Color range                              : Limited
  27. Matrix coefficients                      : BT.709
  28.  
  29. Audio
  30. ID                                       : 1
  31. Format                                   : AC-3
  32. Format/Info                              : Audio Coding 3
  33. Mode extension                           : CM (complete main)
  34. Format settings, Endianness              : Big
  35. Codec ID                                 : A_AC3
  36. Duration                                 : 1h 24mn
  37. Bit rate mode                            : Constant
  38. Bit rate                                 : 384 Kbps
  39. Channel(s)                               : 6 channels
  40. Channel positions                        : Front: L C R, Side: L R, LFE
  41. Sampling rate                            : 48.0 KHz
  42. Frame rate                               : 31.250 fps (1536 spf)
  43. Compression mode                         : Lossy
  44. Delay relative to video                  : 9ms
  45. Stream size                              : 233 MiB (10%)
  46. Language                                 : English
  47. Default                                  : Yes
  48. Forced                                   : No
  49.  
  50.