Posted : 2 Years ago

  1. Naughty or Nice (2012) TVRIP XViD - NoGRP
  2.  
  3.  Air Date:
  4.  25 Nov 2012
  5.  
  6.  Summary:
  7.  After she is suddenly fired from her job, Krissy Kringle (Hilarie Burton) is in no mood for all the misdirected Santa mail she receives to her home on Candy Cane Lane.  Even so, one package in particular stands out: SantaGÇÖs GÇ£Naughty or NiceGÇ¥ book, which he left behind when visiting a child.  After Krissy realizes that the book is magical and will show her all the bad deeds of those around her, Krissy sets out to expose everyone she knows who has been naughty. Eventually, the naughty list hits too close to home, exposing a truth about her long-time boyfriend, Lance (Matt Dallas) and causing turmoil with one of her neighbors.  With the help of her mother, Carol (Meredith Baxter) and father Walter Kringle (Michael Gross), Krissy discovers that the bookGÇÖs powers also reveal the nice in people, not just the naughty.
  8.  
  9.  Cast:
  10.  Hilarie Burton, Matt Dallas, Michael Gross
  11.  
  12.  Imdb:
  13. http://www.imdb.com/title/tt2417134/
  14.  
  15.  General
  16.  Format                                   : AVI
  17.  Format/Info                              : Audio Video Interleave
  18.  File size                                : 700 MiB
  19.  Duration                                 : 1h 23mn
  20.  Overall bit rate                         : 1 173 Kbps
  21.  
  22.  Video
  23.  ID                                       : 0
  24.  Format                                   : MPEG-4 Visual
  25.  Format profile                           : Advanced Simple@L5
  26.  Format settings, BVOP                    : 2
  27.  Format settings, QPel                    : No
  28.  Format settings, GMC                     : No warppoints
  29.  Format settings, Matrix                  : Default (H.263)
  30.  Codec ID                                 : XVID
  31.  Codec ID/Hint                            : XviD
  32.  Duration                                 : 1h 23mn
  33.  Bit rate                                 : 1 031 Kbps
  34.  Width                                    : 624 pixels
  35.  Height                                   : 352 pixels
  36.  Display aspect ratio                     : 16:9
  37.  Frame rate                               : 29.970 fps
  38.  Color space                              : YUV
  39.  Chroma subsampling                       : 4:2:0
  40.  Bit depth                                : 8 bits
  41.  Scan type                                : Progressive
  42.  Compression mode                         : Lossy
  43.  Bits/(Pixel*Frame)                       : 0.157
  44.  Stream size                              : 615 MiB (88%)
  45.  Writing library                          : XviD 1.2.1 (UTC 2008-12-04)
  46.  
  47.  Audio
  48.  ID                                       : 1
  49.  Format                                   : MPEG Audio
  50.  Format version                           : Version 1
  51.  Format profile                           : Layer 3
  52.  Codec ID                                 : 55
  53.  Codec ID/Hint                            : MP3
  54.  Duration                                 : 1h 23mn
  55.  Source duration                          : 1h 23mn
  56.  Bit rate mode                            : Constant
  57.  Bit rate                                 : 128 Kbps
  58.  Channel(s)                               : 2 channels
  59.  Sampling rate                            : 48.0 KHz
  60.  Compression mode                         : Lossy
  61.  Stream size                              : 76.3 MiB (11%)